.
Авторизация | Регистрация
» » Call of Duty: Infinite Warfare (2016) WEBRip 720p | D скачать торрент бесплатно




    Call of Duty: Infinite Warfare (2016) WEBRip 720p | D скачать торрент бесплатно

    Опубликовал: Админ | Дата: 8-11-2016, 05:00 | Просмотров: 41



    Оригинальное название: Call of Duty: Infinite Warfare
    Дата выхода: 2016 г.
    Разработчик игры игры: Infinity Ward (США)
    Создатель видео: GamingWalkDi
    Жанр игры: Игрофильм
    Продолжительность: 03: 14: 45
    Перевод: Профессиональный (дублированный) 1C
    Субтитры: Русский хардсаб Диалоги, экранные надписи и тп.
    Режиссеры: Джейкоб Минкофф, Джордан Херш, Брайан Брайт
    В ролях: Брайан Блум, Клаудия Кристиан, Дэвид Хэрвуд, Эрик Ладин, Джейми Грей Хайдер, Джейсон Бэрри, Кит Харингтон и др.

    Описание

    Call of Duty: Infinite Warfare – очередная часть в популярной серии шутеров от первого лица Call of Duty, в которой вас ждут грандиозные сражения, незабываемые персонажи, увлекательный кинематографический сюжет, а также новый эпический сеттинг. Впервые в истории серии противостояние развернется за пределами Земли на обширных пространствах Солнечной системы. Вам предстоит вжиться в роль Рейеса – первого пилота одного из последних оставшихся огромных боевых кораблей земного флота – Retribution, выполняющего также роль вашей базы во время путешествий по Солнечной системе.
    Дополнительная информация:
    Данное видео позиционируется как ИГРОФИЛЬМ (без комментариев). В игрофильме присутствуют все катсцены + урезанный геймплей до минимума (все диалоги сохранены, переходы между CGI и геймплейные съёмки тоже сохранены, укорочены перестрелки до минимума).

    Качество: WEBRip 720p
    Формат: MP4
    Видео: MPEG-4 AVC Video (H.264)/1280х720/1956 kbps/29.970 fps
    Аудио: AAC, 2 channels, 44.1 kHz, 128 kbps
    MediaInfo
    General
    Complete name : Call.of.Duty.Infinite.Warfare.2016.D.WEBRip.720p.mp4
    Format : MPEG-4
    Format profile : Base Media/Version 2
    Codec ID : mp42
    File size : 2.84 GiB
    Duration : 3h 14mn
    Overall bit rate mode : Variable
    Overall bit rate : 2 085 Kbps
    Encoded date : UTC 2016-11-06 02: 30: 29
    Tagged date : UTC 2016-11-06 02: 30: 29
    gsst : 0
    gstd : 11685395
    Video
    ID : 1
    Format : AVC
    Format/Info : Advanced Video Codec
    Format profile : Main@L3.1
    Format settings, CABAC : Yes
    Format settings, ReFrames : 3 frames
    Codec ID : avc1
    Codec ID/Info : Advanced Video Coding
    Duration : 3h 14mn
    Bit rate : 1 956 Kbps
    Width : 1 280 pixels
    Height : 720 pixels
    Display aspect ratio : 16: 9
    Frame rate mode : Constant
    Frame rate : 29.970 fps
    Color space : YUV
    Chroma subsampling : 4: 2: 0
    Bit depth : 8 bits
    Scan type : Progressive
    Bits/(Pixel*Frame) : 0.071
    Stream size : 2.66 GiB (94%)
    Title : ISO Media file produced by Google Inc.
    Encoded date : UTC 2016-11-06 02: 30: 29
    Tagged date : UTC 2016-11-06 02: 30: 29
    Color primaries : BT.709
    Transfer characteristics : BT.709
    Matrix coefficients : BT.709
    Color range : Limited
    Audio
    ID : 2
    Format : AAC
    Format/Info : Advanced Audio Codec
    Format profile : LC
    Codec ID : 40
    Duration : 3h 14mn
    Source duration : 3h 14mn
    Bit rate mode : Variable
    Bit rate : 126 Kbps
    Channel(s) : 2 channels
    Channel positions : Front: L R
    Sampling rate : 44.1 KHz
    Compression mode : Lossy
    Stream size : 175 MiB (6%)
    Source stream size : 175 MiB (6%)
    Title : ISO Media file produced by Google Inc.
    Encoded date : UTC 2016-11-06 02: 30: 29
    Tagged date : UTC 2016-11-06 02: 30: 29
    Скриншоты





    Онлайн видео Call of Duty: Infinite Warfare (2016) WEBRip 720p


    Размер скачиваемого торрента: 2.84 GB (3045267329 Bytes)

    Call of Duty: Infinite Warfare (2016) WEBRip 720p | D
    загрузка...
    Рейтинг →
     (голосов: 1, оценка 4/5, голосовать можно 1 раз )

    Другие торренты по теме:

  • Call of Duty: Золотое издание / Call of Duty: Gold (2004-2005) PC | Лицензия торрент скачать бесплатно
  • Call of Duty: Black Ops 2: Digital Deluxe Edition (2012) PC | Rip от R.G. Механики торрент скачать бесплатно
  • Call Of Duty: Black Ops (2010) PS3 торрент скачать бесплатно
  • OST - Call Of Duty 4: Modern Warfare Soundtrack (2007) MP3 торрент скачать бесплатно
  • OST - Call Of Duty: Modern Warfare 3 Soundtrack (2011) MP3 торрент скачать бесплатно
  • OST - Call Of Duty: World At War Soundtrack (2008) MP3 торрент скачать бесплатно
  • OST - Call Of Duty: Modern Warfare 2 Soundtrack (2009) MP3 торрент скачать бесплатно
  • Call of Duty: Modern Warfare 2 - Multiplayer Only (2013) РС | RIP By X-NET торрент скачать бесплатно


    • Комментарии (0):

      Информация

      Информация

        Посетители, находящиеся в группе Гости, не могут оставлять комментарии в данной новости.

        ↓ Меню



        ↓ Опрос

        А Вы добавили сайт в закладки?
        Да
        Не


        Top 10 за неделю (Игры)