.
Авторизация | Регистрация


Watch Dogs (2014) WEBRip 1080p | D скачать торрент бесплатно

Опубликовал: Админ | Дата: 6-12-2016, 14:44 | Просмотров: 60



Оригинальное название: Watch Dogs
Дата выхода: 2014 г.
Разработчик игры игры: Ubisoft Montreal (Канада), Ubisoft Reflections (Великобритания)
Создатель видео: GamingWalkDi
Жанр игры: Игрофильм
Продолжительность: 05: 26: 59
Перевод: Профессиональный (дублированный) Логрус
Субтитры: Русский хардсаб Диалоги, экранные надписи и тп.
Режиссер: Джонатан Морин
В ролях: Ноам Дженкинс, Р. Чарлз Уилкерсон, Холли О;Брайэн, Изабель Бле, Джулиан Кейси, Дэниел Кэш, Тревор Хейс и др.

Описание

Все друг с другом связаны. Мы зависим от новинок рынка высоких технологий, ведь лишь с их помощью узнаем, что происходит в мире. Но у прогресса есть и темная сторона. Каждое наше действие оставляет след: каждый наш шаг, каждая остановка, все, что нам нравится или не нравится. И дело не только в нас. Мегаполисы опутаны цифровыми сетями. Городская инфраструктура контролируется и управляется сложнейшими системами. В Watch Dogs Чикаго подчиняется Центральной Операционной Системе (ctOS), именно она содержит информацию обо всех жителях. И тот, кто получит к ней доступ, получит контроль над городом.
Эйден Пирс – выдающийся хакер с криминальным прошлым, чьи поступки стали причиной трагедии. Чтобы отомстить за свою семью, он выходит на тропу войны. Эйден способен взламывать и использовать все, что подключено к городской информационной сети – все, что его окружает. Доступ к камерам безопасности, загрузка персональных данных, отслеживание местонахождения людей, управление светофорами и общественным транспортом…
Сам Чикаго станет его оружием. Нужно лишь научиться им пользоваться.
В раздаче, помимо игрофильма по основной кампании игры, так же имеется игрофильм по DLC Bad Blood. Подробности под спойлером.

Дополнительная информация:
Данное видео позиционируется как ИГРОФИЛЬМ (без комментариев). В игрофильме присутствуют все катсцены + урезанный геймплей (только геймплей, который делает игрофильм цельным и сцены плавно перетекающие из геймплея в катсцену).

Качество: WEBRip 1080p
Формат: MP4
Видео: MPEG-4 AVC Video (H.264)/1920х1080/3149 kbps/29.970 fps
Аудио: AAC, 2 channels, 44.1 kHz, 128 kbps
MediaInfo
General
Complete name : Watch.Dogs.2014.D.WEBRip.1080p.mp4
Format : MPEG-4
Format profile : Base Media
Codec ID : isom
File size : 7.50 GiB
Duration : 5h 26mn
Overall bit rate : 3 284 Kbps
Writing application : Lavf56.40.101
Video
ID : 1
Format : AVC
Format/Info : Advanced Video Codec
Format profile : High@L4.0
Format settings, CABAC : Yes
Format settings, ReFrames : 3 frames
Codec ID : avc1
Codec ID/Info : Advanced Video Coding
Duration : 5h 26mn
Duration_FirstFrame : -33ms
Bit rate : 3 149 Kbps
Width : 1 920 pixels
Height : 1 080 pixels
Display aspect ratio : 16: 9
Frame rate mode : Variable
Frame rate : 29.970 fps
Minimum frame rate : 29.970 fps
Maximum frame rate : 29.990 fps
Color space : YUV
Chroma subsampling : 4: 2: 0
Bit depth : 8 bits
Scan type : Progressive
Bits/(Pixel*Frame) : 0.051
Stream size : 7.19 GiB (96%)
Color primaries : BT.709
Transfer characteristics : BT.709
Matrix coefficients : BT.709
Color range : Limited
Audio
ID : 2
Format : AAC
Format/Info : Advanced Audio Codec
Format profile : LC
Codec ID : 40
Duration : 5h 26mn
Source duration : 5h 26mn
Bit rate mode : Constant
Bit rate : 126 Kbps
Channel(s) : 2 channels
Channel positions : Front: L R
Sampling rate : 44.1 KHz
Compression mode : Lossy
Stream size : 294 MiB (4%)
Source stream size : 294 MiB (4%)
Watch Dogs: Bad Blood

Продолжительность: 00: 32: 56
Перевод: Профессиональный (дублированный) Логрус
Субтитры: Русский хардсаб Диалоги, экранные надписи и тп.

Описание

Watch Dogs: Bad Blood - это дополнение посвящено Рэймонду Ти-Боуну Кинни, которого мы помним по оригинальной Watch Dogs, и который собирался свинтить из Чикаго на волю, подальше от тотальной слежки и засилья ctOS. Но, увы, воплотить свои планы в жизнь Ти-Боуну не удается. Стоило только нашему бородачу собрать вещи и запаковать чемоданы, как ему позвонил его старый и хороший товарищ Тобиас Фрюер и сообщил, что находится в багажнике неизвестной машины неизвестно где. Как можно догадаться, в беде друга Ти-Боун не оставит.
События DLC разворачиваются после событий основной кампании игры.

Качество: WEBRip 1080p
Формат: MP4
Видео: MPEG-4 AVC Video (H.264)/1920х1080/2516 kbps/29.970 fps
Аудио: AAC, 2 channels, 44.1 kHz, 128 kbps
Скриншоты





Онлайн видео Watch Dogs (2014) WEBRip 1080p


Размер скачиваемого торрента: 8.11 GB (8709155266 Bytes)

Watch Dogs (2014) WEBRip 1080p | D
загрузка...
Рейтинг →
 (голосов: 1, оценка 3/5, голосовать можно 1 раз )

Другие торренты по теме:

  • Watch Dogs (2013) HDRip l Gameplay Video торрент скачать бесплатно
  • Watch Dogs (2014) PS3 | RePack от Afd торрент скачать бесплатно
  • Watch Dogs (2014) XBOX360 торрент скачать бесплатно
  • Watch Dogs (2014) XBOX360 торрент скачать бесплатно
  • Watch Dogs (2014) PS3 торрент скачать бесплатно
  • Watch Dogs (2014) XBOX360 торрент скачать бесплатно
  • Watch Dogs - Digital Deluxe Edition (2014) PC | RePack от Brick торрент скачать бесплатно
  • Watch Dogs (2014) PC | Патч скачать через торрент бесплатно


    • Комментарии (0):

      Информация

      Информация

        Посетители, находящиеся в группе Гости, не могут оставлять комментарии в данной новости.

        ↓ Меню



        ↓ Опрос

        А Вы добавили сайт в закладки?
        Да
        Не


        Top 10 за неделю (Игры)