.
Авторизация | Регистрация


Watch Dogs 2 (2016) WEBRip 720p | D скачать торрент бесплатно

Опубликовал: Админ | Дата: 8-12-2016, 18:21 | Просмотров: 189



Оригинальное название: Watch Dogs 2
Дата выхода: 2016 г.
Разработчик игры игры: Ubisoft Montreal (Канада), Ubisoft Reflections (Великобритания)
Создатель видео: GamingWalkDi
Жанр игры: Игрофильм
Продолжительность: 06: 57: 22
Перевод: Профессиональный (дублированный) Логрус
Субтитры: Русский хардсаб Диалоги, экранные надписи и тп.
Режиссеры: Джонатан Морин, Патрик Плаурд, Дэнни Беланжер
В ролях: Руффин Прентисс, Шон Бейчу, Тася Телес, Джонатан Дабски, Джон Тенч, Майкл Хавьер, Кристофер Джакот и др.

Описание

Главный герой - хакер, родом из Окленда, штат Калифорния, по имени Маркус Холлоуэй переезжает в Сан-Франциско, в сердце Силиконовой Долины, где, объединившись с группировкой активистов из организации DedSec, бросает вызов алчным корпорациям и коррумпированным властям города, взяв под управление обновленную универсальную систему ctOS 2.0.
Дополнительная информация:
Данное видео позиционируется как ИГРОФИЛЬМ (без комментариев). В игрофильме присутствуют все катсцены + урезанный геймплей (все диалоги сохранены, переходы между CGI и геймплейные съёмки тоже сохранены, укорочены перестрелки до минимума).

Качество: WEBRip 720p
Формат: MP4
Видео: MPEG-4 AVC Video (H.264)/1280х720/2019 kbps/29.970 fps
Аудио: AAC, 2 channels, 44.1 kHz, 128 kbps
MediaInfo
General
Complete name : Watch.Dogs.2.2016.D.WEBRip.720p.mp4
Format : MPEG-4
Format profile : Base Media/Version 2
Codec ID : mp42
File size : 6.26 GiB
Duration : 6h 57mn
Overall bit rate mode : Variable
Overall bit rate : 2 148 Kbps
Encoded date : UTC 2016-12-07 17: 37: 16
Tagged date : UTC 2016-12-07 17: 37: 16
gsst : 0
gstd : 25042210
Video
ID : 1
Format : AVC
Format/Info : Advanced Video Codec
Format profile : Main@L3.1
Format settings, CABAC : Yes
Format settings, ReFrames : 3 frames
Codec ID : avc1
Codec ID/Info : Advanced Video Coding
Duration : 6h 57mn
Bit rate : 2 019 Kbps
Width : 1 280 pixels
Height : 720 pixels
Display aspect ratio : 16: 9
Frame rate mode : Constant
Frame rate : 29.970 fps
Color space : YUV
Chroma subsampling : 4: 2: 0
Bit depth : 8 bits
Scan type : Progressive
Bits/(Pixel*Frame) : 0.073
Stream size : 5.88 GiB (94%)
Title : ISO Media file produced by Google Inc.
Encoded date : UTC 2016-12-07 17: 37: 16
Tagged date : UTC 2016-12-07 17: 37: 16
Color primaries : BT.709
Transfer characteristics : BT.709
Matrix coefficients : BT.709
Color range : Limited
Audio
ID : 2
Format : AAC
Format/Info : Advanced Audio Codec
Format profile : LC
Codec ID : 40
Duration : 6h 57mn
Bit rate mode : Variable
Bit rate : 126 Kbps
Channel(s) : 2 channels
Channel positions : Front: L R
Sampling rate : 44.1 KHz
Compression mode : Lossy
Stream size : 375 MiB (6%)
Title : ISO Media file produced by Google Inc.
Encoded date : UTC 2016-12-07 17: 37: 16
Tagged date : UTC 2016-12-07 17: 37: 16
Скриншоты





Онлайн видео Watch Dogs 2 (2016) WEBRip 720p


Размер скачиваемого торрента: 6.26 GB (6724109402 Bytes)

Watch Dogs 2 (2016) WEBRip 720p | D
загрузка...
Рейтинг →
 (голосов: 1, оценка 5/5, голосовать можно 1 раз )

Другие торренты по теме:

  • Watch Dogs (2013) HDRip l Gameplay Video торрент скачать бесплатно
  • Watch Dogs (2014) PS3 | RePack от Afd торрент скачать бесплатно
  • Watch Dogs (2014) XBOX360 торрент скачать бесплатно
  • Watch Dogs (2014) XBOX360 торрент скачать бесплатно
  • Watch Dogs (2014) PS3 торрент скачать бесплатно
  • Watch Dogs (2014) XBOX360 торрент скачать бесплатно
  • Watch Dogs - Digital Deluxe Edition (2014) PC | RePack от Brick торрент скачать бесплатно
  • Watch Dogs (2014) PC | Патч скачать через торрент бесплатно


    • Комментарии (0):

      Информация

      Информация

        Посетители, находящиеся в группе Гости, не могут оставлять комментарии в данной новости.

        ↓ Меню



        ↓ Опрос

        А Вы добавили сайт в закладки?
        Да
        Не


        Top 10 за неделю (Игры)