.
Авторизация | Регистрация
Хочешь лучшие торренты? Добавь свой email!
Добавить
» » Расследования Мердока / Murdoch Mysteries (2014) WEB-DLRip | DreamRecords торрент скачать бесплатно




    Расследования Мердока / Murdoch Mysteries (2014) WEB-DLRip | DreamRecords торрент скачать бесплатно

    Опубликовал: Админ | Дата: 11-11-2015, 15:05 | Просмотров: 97



    Детально о кино
    Русское название: Расследования Мердока
    Русское название в мировом прокате: Murdoch Mysteries
    Создали в: 2014
    Категория жанра: драма, криминал, детектив
    Главный режиссер: Харви Кросслэнд, Лори Линд, Дон МакКатчен

    Актеры
    Янник Биссон, Хелен Джой, Томас Крэйг, Джонни Харрис, Лаклан Мёрдок, Джорджина Рейли, Кристиан Бруун, Арвен Хампрейс, Джонатан Уоттон, Найджел Беннетт

    Сюжет фильма

    Конец 19-го века. На улицах Торонто происходят странные убийства. Детектив Уильям Мердок раскрывает их с помощью новой науки — криминалистики. У него есть союзник — судебный врач Джулия Огден. Ни юный возраст, ни хорошее воспитание, ни пышные юбки не мешают ей вскрывать трупы и проводить экспертизы.
    Официальный сайт
    Снималось в: Канада, Великобритания
    Киностудия: Shaftesbury Films, Rogers Media, UKTV, ITV Studios Global Entertainment, Genesis International
    Время просмотра: ~00: 45: 00 серия
    Перевод текста: Любительский (двухголосый закадровый) - (DreamRecords)
    Файл
    Кодек для видео: XviD/MP3
    Качество фильма: WEB-DLRip
    Информация о видео: MPEG4, XviD, 720x400 (16: 9), 23.976 fps, 1 295 Kbps (0.188 bit/pixel)
    Информация о звуке: MP3, 48.0 KHz, 2 ch, 192 Kbps, CBR
    Скриншоты
    Screenshots
    MediaInfo
    General
    Complete name : Murdoch.Mysteries.S08E01.400p.WEB-DLRip.XviD - DreamRecords.avi
    Format : AVI
    Format/Info : Audio Video Interleave
    File size : 470 MiB
    Duration : 43mn 56s
    Overall bit rate : 1 496 Kbps
    Writing application : VirtualDubModRus 1.5.10.2 (build 2542/release)
    Writing library : VirtualDubMod build 2542/release
    Video
    ID : 0
    Format : MPEG-4 Visual
    Format profile : Advanced Simple@L5
    Format settings, BVOP : 1
    Format settings, QPel : No
    Format settings, GMC : No warppoints
    Format settings, Matrix : Default (MPEG)
    Codec ID : XVID
    Codec ID/Hint : XviD
    Duration : 43mn 56s
    Bit rate : 1 295 Kbps
    Width : 720 pixels
    Height : 400 pixels
    Display aspect ratio : 16: 9
    Frame rate : 23.976 fps
    Color space : YUV
    Chroma subsampling : 4: 2: 0
    Bit depth : 8 bits
    Scan type : Progressive
    Compression mode : Lossy
    Bits/(Pixel*Frame) : 0.188
    Stream size : 407 MiB (87%)
    Writing library : XviD 64
    Audio
    ID : 1
    Format : MPEG Audio
    Format version : Version 1
    Format profile : Layer 3
    Codec ID : 55
    Codec ID/Hint : MP3
    Duration : 43mn 56s
    Bit rate mode : Constant
    Bit rate : 192 Kbps
    Channel(s) : 2 channels
    Sampling rate : 48.0 KHz
    Compression mode : Lossy
    Stream size : 60.3 MiB (13%)
    Alignment : Aligned on interleaves
    Interleave, duration : 42 ms (1.00 video frame)
    Interleave, preload duration : 504 ms


    Онлайн видео Расследования Мердока


    Размер скачиваемого торрента: 3.22 GB (3455045632 Bytes)

    Расследования Мердока/Murdoch Mysteries (2014) WEB-DLRip | DreamRecords
    загрузка...
    Рейтинг →
     (голосов: 1, оценка 4/5, голосовать можно 1 раз )

    Другие торренты по теме:

  • Расследования Мердока / Murdoch Mysteries (2012) HDTVRip | DreamRecords
  • Расследования Мердока / Murdoch Mysteries (2013) HDTVRip | DreamRecords
  • Расследования Мердока / Murdoch Mysteries (2004) DVDRip от Brazzass
  • Расследования Мердока / Murdoch Mysteries (2010) Blu-ray 1080p от HDClub
  • Расследования Мердока / Murdoch Mysteries (2009) Blu-ray 1080p от HDClub
  • Расследования Мердока / Murdoch Mysteries (2008) Blu-ray 1080p от HDClub
  • Расследования Мердока / Murdoch Mysteries (2008) BDRip 720p от HDClub скачать через торрент бесплатно
  • Расследования Мердока / Murdoch Mysteries (2009) BDRip 720p от HDClub


    • Комментарии (0):

      Информация

      Информация

        Посетители, находящиеся в группе Гости, не могут оставлять комментарии в данной новости.

        ↓ Меню



        ↓ Опрос

        А Вы добавили сайт в закладки?
        Да
        Не


        Top 10 за месяц (Фильмы)