.
Авторизация | Регистрация
Хочешь лучшие торренты? Добавь свой email!
Добавить
» » Отель Руанда / Hotel Rwanda (2004) BDRip-AVC | P торрент скачать бесплатно




    Отель Руанда / Hotel Rwanda (2004) BDRip-AVC | P торрент скачать бесплатно

    Опубликовал: Админ | Дата: 14-11-2015, 11:34 | Просмотров: 138




    Детально о кино
    Русское название: Отель Руанда
    Русское название в мировом прокате: Hotel Rwanda
    Создали в: 2004
    Категория жанра: драма, военный, биография, история
    Главный режиссер: Терри Джордж

    Актеры
    Дон Чидл, Софи Оконедо, Ник Нолти, Кэра Сеймур, Хоакин Феникс, Жан Рено, Колани Мали, Десмонд Дюбэ, Хаким Кае-Казим, Тони Кгороге

    Сюжет фильма

    Сюжет фильма основан на реальных событиях середины 90-х годов прошлого века, когда народ хуту, составлявшее в Руанде этническое большинство, устроило в стране кровавую резню, уничтожив более миллиона человек, принадлежавших народу тутси.
    Главный герой фильма по имени Пол — управляющий престижного отеля в столице Руанды, в котором от убийц укрылись несколько сотен человек. Пол делает все от него зависящее, чтобы их спасти. Ситуация осложняется тем, что жена Пола также принадлежит народу тутси. У Пола большие связи, он не гнушается ни подкупом, ни шантажом; он угрожает, умоляет, льстит… И спасает от гибели 1268 человек.

    Снималось в: Великобритания, США, Италия, ЮАР
    Время просмотра: 02: 01: 51
    Перевод текста: Профессиональный многоголосый, закадровый
    Субтитры: Русские, Английские
    Главы/Чаптеры: Есть
    Файл
    Качество фильма: BDRip-AVC
    Информация о видеокодек: MPEG-4 AVC/H.264
    Информация о видео: : ~ 1254 Кбит/сек, 1024x436, 23.976 fps, High Profile 4.1
    Информация о звуке: 48 kHz, АС3, 6 ch, 448 kbps,

    M/I
    General
    Unique ID: 208568454336842420879322482788275760984 (0x9CE8D2BB04F37EC5AF959A01B236AF58)
    Complete name : E: Отель Руанда.(2004). BDRIP-AVC. -=DoMiNo=-.mkv
    Format: Matroska
    Format version: Version 4/Version 2
    File size: 1.45 GiB
    Duration: 2h 1mn
    Overall bit rate: 1 704 Kbps
    Movie name: Отель Руанда
    Encoded date: UTC 2015-11-13 03: 25: 07
    Writing application: mkvmerge v8.3.0 (;Over the Horizon;) 64bit
    Writing library: Lavf56.25.101
    Attachements: cover.png
    ORIGINAL_TITLE: Hotel Rwanda
    DATE: 2004
    GENRE: драма, военный, история
    ENCODING_INFO: BluRay MKV/H264 X264 VBR-2P 1254kbps Custom/AC3 COPY
    SYNOPSIS: Сюжет фильма основан на реальных событиях середины 90-х годов прошлого века, когда народ хуту, составлявшее в Руанде этническое большинство, устроило в стране кровавую резню, уничтожив более миллиона (!) человек, принадлежавших народу тутси.Главный герой фильма по имени Пол ? управляющий престижного отеля в столице Руанды, в котором от убийц укрылись несколько сотен человек. Пол делает все от него зависящее, чтобы их спасти. Ситуация осложняется тем, что жена Пола также принадлежит народу тутси. У Пола большие связи, он не гнушается ни подкупом, ни шантажом; он угрожает, умоляет, льстит? И спасает от гибели 1268 человек.
    ITUNEXTC: mpaa|PG-13|300|
    ACTORS: Дон Чидл, Софи Оконедо, Ник Нолти, Кэра Сеймур, Хоакин Феникс, Жан Рено, Колани Мали, Десмонд Дюбэ, Хаким Кае-Казим, Тони Кгороге, показать всех
    DIRECTOR: Терри Джордж
    PRODUCER: Терри Джордж, А. Китман Хо, Сэм Бхэмб
    WRITER: Кейр Пирсон, Терри Джордж
    COUNTRY: Великобритания, США, Италия, ЮАР, Канада
    RATING: 8.068
    IMDB_RATING: 8.20
    DURATION: 01: 54: 39.956000000
    NUMBER_OF_FRAMES: 1427
    NUMBER_OF_BYTES: 51853
    _STATISTICS_WRITING_APP: mkvmerge v8.3.0 (;Over the Horizon;) 64bit
    _STATISTICS_WRITING_DATE_UT: 2015-11-13 03: 25: 07
    _STATISTICS_TAGS: BPS DURATION NUMBER_OF_FRAMES NUMBER_OF_BYTES
    Video
    ID: 1
    Format: AVC
    Format/Info: Advanced Video Codec
    Format profile: High@L4.1
    Format settings, CABAC: Yes
    Format settings, ReFrames: 12 frames
    Codec ID: V_MPEG4/ISO/AVC
    Duration: 2h 1mn
    Bit rate: 1 254 Kbps
    Width: 1 024 pixels
    Height: 436 pixels
    Display aspect ratio: 2.35: 1
    Frame rate mode: Constant
    Frame rate: 23.976 fps
    Color space: YUV
    Chroma subsampling: 4: 2: 0
    Bit depth: 8 bits
    Scan type: Progressive
    Bits/(Pixel*Frame): 0.117
    Stream size: 1.04 GiB (72%)
    Writing library: x264 core 148 r2638M 7599210
    Encoding settings: cabac=1/ref=12/deblock=1: -3: -3/analyse=0x3: 0x133/me=umh/subme=11/psy=1/psy_rd=1.00: 0.00/mixed_ref=1/me_range=32/chroma_me=1/trellis=2/8x8dct=1/cqm=0/deadzone=21, 11/fast_pskip=0/chroma_qp_offset=-2/threads=5/lookahead_threads=1/sliced_threads=0/nr=0/decimate=1/interlaced=0/bluray_compat=0/constrained_intra=0/bframes=11/b_pyramid=2/b_adapt=2/b_bias=0/direct=3/weightb=1/open_gop=0/weightp=2/keyint=230/keyint_min=23/scenecut=40/intra_refresh=0/rc=2pass/mbtree=0/bitrate=1254/ratetol=1.0/qcomp=0.60/qpmin=0/qpmax=69/qpstep=4/cplxblur=20.0/qblur=0.5/ip_ratio=1.40/pb_ratio=1.30/aq=1: 1.00
    Default: Yes
    Forced: No
    Color range: Limited
    Color primaries: BT.709
    Transfer characteristics: BT.709
    Matrix coefficients: BT.709
    DURATION: 02: 01: 51.263000000
    NUMBER_OF_FRAMES: 175295
    NUMBER_OF_BYTES: 1144366228
    _STATISTICS_WRITING_APP: mkvmerge v8.3.0 (;Over the Horizon;) 64bit
    _STATISTICS_WRITING_DATE_UT: 2015-11-13 03: 25: 07
    _STATISTICS_TAGS: BPS DURATION NUMBER_OF_FRAMES NUMBER_OF_BYTES
    Audio
    ID: 2
    Format: AC-3
    Format/Info: Audio Coding 3
    Mode extension: CM (complete main)
    Format settings, Endianness: Big
    Codec ID: A_AC3
    Duration: 2h 1mn
    Bit rate mode: Constant
    Bit rate: 448 Kbps
    Channel(s): 6 channels
    Channel positions: Front: L C R, Side: L R, LFE
    Sampling rate: 48.0 KHz
    Compression mode: Lossy
    Stream size: 390 MiB (26%)
    Title: Профессиональный (многоголосый закадровый)
    Language: Russian
    Default: Yes
    Forced: No
    Text #1
    ID: 3
    Format: UTF-8
    Codec ID: S_TEXT/UTF8
    Codec ID/Info: UTF-8 Plain Text
    Title: Rus
    Language: Russian
    Default: No
    Forced: No
    Text #2
    ID: 4
    Format: UTF-8
    Codec ID: S_TEXT/UTF8
    Codec ID/Info: UTF-8 Plain Text
    Title: Eng
    Language: English
    Default: No
    Forced: No
    Menu
    00: 00: 00.000 : : Глава 1
    00: 05: 59.859 : : Глава 2
    00: 08: 05.026 : : Глава 3
    00: 12: 29.081 : : Глава 4
    00: 15: 26.508 : : Глава 5
    00: 22: 00.109 : : Глава 6
    00: 26: 46.313 : : Глава 7
    00: 30: 46.302 : : Глава 8
    00: 37: 39.131 : : Глава 9
    00: 41: 25.065 : : Глава 10
    00: 46: 00.340 : : Глава 11
    00: 48: 15.016 : : Глава 12
    00: 56: 59.582 : : Глава 13
    01: 04: 34.704 : : Глава 14
    01: 10: 26.555 : : Глава 15
    01: 14: 28.213 : : Глава 16
    01: 19: 14.791 : : Глава 17
    01: 23: 47.021 : : Глава 18
    01: 28: 57.999 : : Глава 19
    01: 35: 14.041 : : Глава 20
    01: 38: 41.540 : : Глава 21
    01: 46: 24.336 : : Глава 22
    01: 51: 02.364 : : Глава 23
    01: 55: 09.819 : : Глава 24
    02: 01: 50.928 : : Глава 25


    Онлайн видео Отель Руанда


    Размер скачиваемого торрента: 1.45 GB (1557147186 Bytes)

    Отель Руанда/Hotel Rwanda (2004) BDRip-AVC | P
    загрузка...
    Рейтинг →
     (голосов: 1, оценка 5/5, голосовать можно 1 раз )

    Другие торренты по теме:

  • Отель Руанда / Hotel Rwanda (2004) BDRip-AVC от Rulya74
  • Отель Руанда / Hotel Rwanda (2004) BDRip 720p от Leonardo and Scarabey | P
  • Отель Руанда / Hotel Rwanda (2004) BDRip-AVC от 0ptimus | P, P2, A


    • Комментарии (0):

      Информация

      Информация

        Посетители, находящиеся в группе Гости, не могут оставлять комментарии в данной новости.

        ↓ Меню



        ↓ Опрос

        А Вы добавили сайт в закладки?
        Да
        Не


        Top 10 за месяц (Фильмы)