.
Авторизация | Регистрация
Хочешь лучшие торренты? Добавь свой email!
Добавить
» » В поисках Рождества / Finding Christmas (2013) SATRip | P торрент скачать бесплатно




    В поисках Рождества / Finding Christmas (2013) SATRip | P торрент скачать бесплатно

    Опубликовал: Админ | Дата: 16-11-2015, 05:01 | Просмотров: 170



    Детально о кино
    Русское название: В поисках Рождества
    Русское название в мировом прокате: Finding Christmas
    Создали в: 2013
    Категория жанра: Мелодрама
    Главный режиссер: Харви Кросслэнд

    Актеры
    Триша Хелфер, Дж.Т. Ходжес, Марк Лутс, Кристина Розато, Кристиан Дистефано, Британи Грэй, Джессика Риммер, Дов Микельсон, Даниэль Кайнд, Скотт Виквэа

    Описание фильма
    Живущие на расстоянии тысячи километров музыкант Оуэн и рекламный агент Шон оказываются в схожей ситуации - обоих бросают возлюбленные. Чтобы отвлечься от своих проблем, мужчины решают обменяться домами в канун Рождества.

    Снималось в: США
    Время просмотра: 01: 26: 47
    Перевод текста: Профессиональный (многоголосый закадровый) - Кинопоказ
    Файл
    Тип видео: AVI
    Качество фильма: SATRip
    Информация о видео: 720x400, (16: 9), XviD, 2056 Кбит/сек, 25, 000 кадров/сек
    Информация о звуке: AC3, 192 Кбит/сек, 2 канала, 48, 0 КГц
    Скриншоты:

    MediaInfo:
    Общее
    Полное имя : J: В поисках Рождества.avi
    Формат : AVI
    Формат/Информация : Audio Video Interleave
    Размер файла : 1, 37 Гбайт
    Продолжительность : 1 ч. 26 м.
    Общий поток : 2258 Кбит/сек
    Название фильма : В поисках Рождества/Finding Christmas (2013)
    Программа кодирования : VirtualDubMod 1.5.10.2 (build 2540/release)
    Библиотека кодирования : VirtualDubMod build 2540/release
    Видео
    Идентификатор : 0
    Формат : MPEG-4 Visual
    Профиль формата : Advanced Simple@L5
    Параметр BVOP формата : 1
    Параметр QPel формата : Нет
    Параметр GMC формата : Без точки перехода
    Параметр матрицы формата : Выборочная
    Идентификатор кодека : XVID
    Идентификатор кодека/Подсказка : XviD
    Продолжительность : 1 ч. 26 м.
    Битрейт : 2056 Кбит/сек
    Ширина : 720 пикселей
    Высота : 400 пикселей
    Соотношение сторон : 16: 9
    Частота кадров : 25, 000 кадров/сек
    Цветовое пространство : YUV
    Субдискретизация насыщенности : 4: 2: 0
    Битовая глубина : 8 бит
    Тип развёртки : Прогрессивная
    Метод сжатия : С потерями
    Бит/(Пиксели*Кадры) : 0.286
    Размер потока : 1, 25 Гбайт (91%)
    Библиотека кодирования : XviD 65
    Аудио
    Идентификатор : 1
    Формат : AC-3
    Формат/Информация : Audio Coding 3
    Расширение режима : CM (complete main)
    Параметр Endianness формата : Big
    Идентификатор кодека : 2000
    Продолжительность : 1 ч. 26 м.
    Вид битрейта : Постоянный
    Битрейт : 192 Кбит/сек
    Каналы : 2 канала
    Расположение каналов : Front: L R
    Частота : 48, 0 КГц
    Битовая глубина : 16 бит
    Метод сжатия : С потерями
    Размер потока : 119 Мбайт (9%)
    Выравнивание : Разделение по промежуткам
    Продолжительность промежутка : 40 мс. (1, 00 видеокадр)
    Время предзагрузки промежутка : 500 мс.
    Заголовок : Профессиональный (многоголосый закадровый)

    Залил: Gepg

    Онлайн видео В поисках Рождества


    Размер скачиваемого торрента: 1.37 GB (1469730816 Bytes)

    В поисках Рождества/Finding Christmas (2013) SATRip | P
    загрузка...
    Рейтинг →
     (голосов: 1, оценка 3/5, голосовать можно 1 раз )

    Другие торренты по теме:

  • Гриббин Джон - 13,8. В поисках истинного возраста Вселенной и теории всего (2016) FB2
  • Горец: В поисках мести / Highlander: The Search for Vengeance (2007) DVDRip | Режиссёрская версия / Directors Cut
  • Индиана Джонс: В поисках утраченного ковчега / Indiana Jones: Raiders of the Lost Ark (1981) BDRip от HELLYWOOD
  • В Поисках Луны / Under the Same Moon / Onaji tsuki wo miteiru (2005) DVDRip | L1
  • В поисках мистера Гудбара / Найти хорошего парня / Looking for Mr. Goodbar (1977) SATRip by DST
  • Библиотекарь: В поисках копья судьбы / The Librarian: Quest for the Spear (2004) BDRemux 1080i от HDTracker
  • В поисках бессмертия: Древо Жизни (2013) PC
  • В поисках правды: О ковчеге / The Truth behind: Тhe Ark (2009) HDTVRip


    • Комментарии (0):

      Информация

      Информация

        Посетители, находящиеся в группе Гости, не могут оставлять комментарии в данной новости.

        ↓ Меню



        ↓ Опрос

        А Вы добавили сайт в закладки?
        Да
        Не


        Top 10 за месяц (Фильмы)