.
Авторизация | Регистрация




Чума (2015) HDTVRip от GeneralFilm скачать торрент бесплатно

Опубликовал: Админ | Дата: 16-11-2015, 14:17 | Просмотров: 134



Детально о кино
Русское название в мировом прокате: Чума (Девяностые)
Создали в: 2015
Категория жанра: Драма, криминал
Главный режиссер: Алексей Козлов, Александр Устюгов

Актеры
Сергей Жарков, Александр Устюгов, Юрий Беляев, Борис Щербаков, Екатерина Климова, Сергей Селин, Андрей Горбачёв, Светлана Смирнова-Марцинкевич, Наталья Ткаченко, Никита Рогов, Андрей Аксёнов, Даниил Кокин, Евгений Филимонов, Ксения Ирхина, Вера Шпак, Андрей Белоцерковский, Елизавета Ковалёва, Елена Мартыненко, Яков Шамшин, Юлия Вознесенская, Сергей Яценюк, Иван Батарев, Андрей Шимко, Михаил Соловьев, Всеволод Цурило, Юлия Галкина, Павел Григорьев, Михаил Морозов, Иван Немцов

Сюжет фильма

Чума – фильм о нас и о девяностых. Рушится эпоха, на смену ей приходит другая. Мужчины – любят деньги, женщины – любят тех, у кого они есть! Героям фильма нужно вписаться в обстоятельства новой жизни, но далеко не у всех это получается. Жизнь людей происходит на разных полюсах криминальной эпохи: взлет олигархов и обнищание народа. Эта жизнь раздаёт дивиденды не по заслугам и справедливости, а по законам волчьей стаи, где выживает сильнейший.
Снималось в: Россия, ООО Студия КонтАкт продакшн по заказу АО Телекомпания НТВ
Время просмотра: 24 x ~ 00: 45: 00
Перевод текста: Не требуется
Файл
Качество фильма: HDTVRip
Информация о видео: XviD, ~ 1050 Кбит/с, 688x384
Информация о звуке: MP3, 2 ch, 128 Кбит/с
МедиаИнфо
Общее
Полное имя : Chuma.(24.serii.iz.24).2015.XviD.HDTVRip.by.GeneralFilm2.seriya.avi
Формат : AVI
Формат/Информация : Audio Video Interleave
Размер файла : 371 Мбайт
Продолжительность : 43 м.
Общий поток : 1197 Кбит/сек
Программа кодирования : VirtualDubMod 1.5.10.3 | www.virtualdub-fr.org || (build 2550/release)
Библиотека кодирования : VirtualDubMod build 2550/release
Видео
Идентификатор : 0
Формат : MPEG-4 Visual
Профиль формата : Advanced Simple@L5
Параметр BVOP формата : 1
Параметр QPel формата : Нет
Параметр GMC формата : Без точки перехода
Параметр матрицы формата : Выборочная
Идентификатор кодека : XVID
Идентификатор кодека/Подсказка : XviD
Продолжительность : 43 м.
Битрейт : 1059 Кбит/сек
Ширина : 688 пикселей
Высота : 384 пикселя
Соотношение сторон : 16: 9
Частота кадров : 25, 000 кадров/сек
Цветовое пространство : YUV
Субдискретизация насыщенности : 4: 2: 0
Битовая глубина : 8 бит
Тип развёртки : Прогрессивная
Метод сжатия : С потерями
Бит/(Пиксели*Кадры) : 0.160
Размер потока : 328 Мбайт (88%)
Библиотека кодирования : XviD 73
Аудио
Идентификатор : 1
Формат : MPEG Audio
Версия формата : Version 1
Профиль формата : Layer 3
Идентификатор кодека : 55
Идентификатор кодека/Подсказка : MP3
Продолжительность : 43 м.
Вид битрейта : Постоянный
Битрейт : 128 Кбит/сек
Каналы : 2 канала
Частота : 48, 0 КГц
Метод сжатия : С потерями
Размер потока : 39, 7 Мбайт (11%)
Выравнивание : Соединение по промежуткам
Продолжительность промежутка : 40 мс. (1, 00 видеокадр)
Время предзагрузки промежутка : 504 мс.
Библиотека кодирования : LAME3.99r
Залил: vsobbol

Онлайн видео Морская полиция: Спецотдел


Размер скачиваемого торрента: 8.70 GB (9339750400 Bytes)


Чума (2015) HDTVRip от GeneralFilm
загрузка...
Рейтинг →
 (голосов: 1, оценка 5/5, голосовать можно 1 раз )

Другие торренты по теме:



    Комментарии (0):

    Информация

    Информация

      Посетители, находящиеся в группе Гости, не могут оставлять комментарии в данной новости.

      ↓ Меню



      ↓ Опрос

      А Вы добавили сайт в закладки?
      Да
      Не


      Top 10 за неделю (Фильмы)