.
Авторизация | Регистрация
Хочешь лучшие торренты? Добавь свой email!
Добавить
» » Белое солнце пустыни (1969) BDRip от New-Team торрент скачать бесплатно




    Белое солнце пустыни (1969) BDRip от New-Team торрент скачать бесплатно

    Опубликовал: Админ | Дата: 16-11-2015, 14:18 | Просмотров: 128



    Создали в: 1969
    Снималось в: СССР
    Студии: ЭТО (Мосфильм, Ленфильм)
    Категория жанра: боевик, драма, мелодрама, комедия, приключения, военный
    Время просмотра: 01: 23: 32
    Субтитры: нет
    Главный режиссер: Владимир Мотыль

    Актеры

    Анатолий Кузнецов, Павел Луспекаев, Спартак Мишулин, Кахи Кавсадзе, Раиса Куркина, Николай Годовиков, Татьяна Федотова, Муса Дудаев, Николай Бадьев, Владимир Кадочников, Галина Лучай, Алла Лименес, Татьяна Кричевская, Яков Ленц, Татьяна Ткач, Александр Массарский, Игорь Милонов, Лидия Смирнова, Светлана Сливинская, Зинаида Рахматова, Татьяна Денисова, Велта Деглав, Ираклий Нижарадзе, Яков Базелян, Галина Дашевская, Галина Умпелева, Надежда Румянцева (голос Гюльчатай)...
    Полный список актёров

    Описание фильма

    Двадцатые годы прошлого века, Туркестан, гражданская война. Классовые сражения на сегодняшний день в общем и целом завершены, и красноармеец Закаспийского интернационального революционного пролетарского имени товарища Августа Бебеля полка Федор Сухов возвращается на родину, к любезной жене Катерине Матвеевне. Он идет домой пешком через пустыню, направляясь к берегу Каспийского моря и по пути сочиняя письма жене. В дороге приключаются с Суховым разные истории: то местному аборигену Саиду надо помочь - выкопать из раскаленного песка, куда его бандит Джавдет по уши закопал, то взять на себя руководство гаремом некоего Черного Абдуллы, за бандой которого гоняется по пескам красный командир Рахимов. Абдулла решил уйти за границу, а гарем пустить в расход. Рахимов гарем отбил, Абдуллу упустил. Чтобы поймать Абдуллу, надо освободиться от забот о гареме. И Рахимов спихивает барышень на Сухова: тот должен довести женщин в целости и сохранности до Педжента...




    Исходник: BDRemux
    Тип релиза: BDRip
    Контейнер: AVI
    Информация о видео: 656x480 (4: 3), 23, 976 fps, XviD ~ 1109 kbps avg, 0.147 bit/pixel
    Информация о звуке: 48 kHz, MP3, 2.0 ch, 128.00 kbps
    Раздача от:
    MediaInfo

    Общее
    Полное имя : Beloe.solntse.pustyni.1969.BDRip-745_New-team_by_AVP_Studio.avi
    Формат : AVI
    Формат/Информация : Audio Video Interleave
    Размер файла : 745 Мбайт
    Продолжительность : 1 ч. 23 м.
    Общий поток : 1246 Кбит/сек
    Программа кодирования : VirtualDubMod 1.5.10.3 | www.virtualdub-fr.org || (build 2550/release)
    Библиотека кодирования : VirtualDubMod build 2550/release
    Видео
    Идентификатор : 0
    Формат : MPEG-4 Visual
    Профиль формата : Advanced Simple@L5
    Параметр BVOP формата : 1
    Параметр QPel формата : Нет
    Параметр GMC формата : Без точки перехода
    Параметр матрицы формата : Выборочная
    Идентификатор кодека : XVID
    Идентификатор кодека/Подсказка : XviD
    Продолжительность : 1 ч. 23 м.
    Битрейт : 1109 Кбит/сек
    Ширина : 656 пикселей
    Высота : 480 пикселей
    Соотношение сторон : 4: 3
    Частота кадров : 23, 976 кадра/сек
    Цветовое пространство : YUV
    Субдискретизация насыщенности : 4: 2: 0
    Битовая глубина : 8 бит
    Тип развёртки : Прогрессивная
    Метод сжатия : С потерями
    Бит/(Пиксели*Кадры) : 0.147
    Размер потока : 663 Мбайт (89%)
    Библиотека кодирования : XviD 73
    Аудио
    Идентификатор : 1
    Формат : MPEG Audio
    Версия формата : Version 1
    Профиль формата : Layer 3
    Идентификатор кодека : 55
    Идентификатор кодека/Подсказка : MP3
    Продолжительность : 1 ч. 23 м.
    Вид битрейта : Постоянный
    Битрейт : 128 Кбит/сек
    Каналы : 2 канала
    Частота : 48, 0 КГц
    Метод сжатия : С потерями
    Размер потока : 76, 5 Мбайт (10%)
    Выравнивание : Соединение по промежуткам
    Продолжительность промежутка : 42 мс. (1, 00 видеокадр)
    Время предзагрузки промежутка : 504 мс.
    Библиотека кодирования : LAME3.99r
    Залил: AVPStudio

    Онлайн видео Белое солнце пустыни (1969) BDRip от New


    Размер скачиваемого торрента: 744.55 MB (780716032 Bytes)


    Белое солнце пустыни (1969) BDRip от New-Team
    загрузка...
    Рейтинг →
     (голосов: 1, оценка 4/5, голосовать можно 1 раз )

    Другие торренты по теме:

  • Белое солнце пустыни / 1969 / РУ / DVDRip (AVC)
  • Белое солнце пустыни (1969) Blu-Ray 1080p
  • Белое солнце пустыни / 1969 / РУ / BDRip


    • Комментарии (0):

      Информация

      Информация

        Посетители, находящиеся в группе Гости, не могут оставлять комментарии в данной новости.

        ↓ Меню



        ↓ Опрос

        А Вы добавили сайт в закладки?
        Да
        Не


        Top 10 за месяц (Фильмы)