.
Авторизация | Регистрация
» » Скейтбордисты / Grind (2003) WEB-DLRip | P скачать торрент бесплатно




    Скейтбордисты / Grind (2003) WEB-DLRip | P скачать торрент бесплатно

    Опубликовал: Админ | Дата: 17-11-2015, 05:01 | Просмотров: 145



    Детально о кино
    Русское название: Скейтбордисты
    Русское название в мировом прокате: Grind
    Создали в: 2003
    Категория жанра: комедия, приключения, спорт
    Главный режиссер: Кэйси Ла Скала

    Актеры
    Майк Фогель, Винс Вьелуф, Адам Броди, Джои Керн, Дженнифер Моррисон, Джейсон Лондон, Саммер Элтис, Бэм Марджера, Эрин Мерфи, Барон Ла Скала

    Описание фильма
    Четверо друзей — фанатов скейтбордов — решают добиться известности. Они организуют свою команду и пускаются в авантюрное путешествие по местам соревнований и тусовок. Пережив массу приключений, они добиваются признания.

    Снималось в: США
    Время просмотра: 01: 44: 52
    Перевод текста:
    1. Профессиональный (многоголосый закадровый) - SDI Media
    2. Профессиональный (многоголосый закадровый)
    3. Оригинал (английский)
    Файл
    Тип видео: AVI
    Качество фильма: WEB-DLRip
    Информация о видео: 720x400, (16: 9), XviD, 1941 Кбит/сек, 23, 976 кадра/сек
    Информация о звуке №1: AC3, 192 Кбит/сек, 2 канала, 48, 0 КГц - SDI Media
    Информация о звуке №2: AC3, 384 Кбит/сек, 6 каналов, 48, 0 КГц - Русский
    Субтитры: AC3, 448 Кбит/сек, 6 каналов, 48, 0 КГц - Оригинал (английский)
    Скриншоты:

    MediaInfo:
    Общее
    Полное имя : J: Скейтбордисты.avi
    Формат : AVI
    Формат/Информация : Audio Video Interleave
    Профиль формата : OpenDML
    Размер файла : 2, 19 Гбайт
    Продолжительность : 1 ч. 44 м.
    Общий поток : 2989 Кбит/сек
    Название фильма : Скейтбордисты/Grind (2003)
    Программа кодирования : VirtualDubMod 1.5.10.2 (build 2540/release)
    Библиотека кодирования : VirtualDubMod build 2540/release
    Видео
    Идентификатор : 0
    Формат : MPEG-4 Visual
    Профиль формата : Advanced Simple@L5
    Параметр BVOP формата : 1
    Параметр QPel формата : Нет
    Параметр GMC формата : Без точки перехода
    Параметр матрицы формата : Выборочная
    Идентификатор кодека : XVID
    Идентификатор кодека/Подсказка : XviD
    Продолжительность : 1 ч. 44 м.
    Битрейт : 1941 Кбит/сек
    Ширина : 720 пикселей
    Высота : 400 пикселей
    Соотношение сторон : 16: 9
    Частота кадров : 23, 976 кадра/сек
    Цветовое пространство : YUV
    Субдискретизация насыщенности : 4: 2: 0
    Битовая глубина : 8 бит
    Тип развёртки : Прогрессивная
    Метод сжатия : С потерями
    Бит/(Пиксели*Кадры) : 0.281
    Размер потока : 1, 42 Гбайт (65%)
    Библиотека кодирования : XviD 65
    Аудио #1
    Идентификатор : 1
    Формат : AC-3
    Формат/Информация : Audio Coding 3
    Расширение режима : CM (complete main)
    Параметр Endianness формата : Big
    Идентификатор кодека : 2000
    Продолжительность : 1 ч. 44 м.
    Вид битрейта : Постоянный
    Битрейт : 192 Кбит/сек
    Каналы : 2 канала
    Расположение каналов : Front: L R
    Частота : 48, 0 КГц
    Метод сжатия : С потерями
    Задержка видео : 1 с. 52 мс.
    Размер потока : 144 Мбайт (6%)
    Выравнивание : Разделение по промежуткам
    Продолжительность промежутка : 42 мс. (1, 00 видеокадр)
    Время предзагрузки промежутка : 500 мс.
    Заголовок : Профессиональный (многоголосый закадровый) TV1000
    Аудио #2
    Идентификатор : 2
    Формат : AC-3
    Формат/Информация : Audio Coding 3
    Расширение режима : CM (complete main)
    Параметр Endianness формата : Big
    Идентификатор кодека : 2000
    Продолжительность : 1 ч. 44 м.
    Вид битрейта : Постоянный
    Битрейт : 384 Кбит/сек
    Каналы : 6 каналов
    Расположение каналов : Front: L C R, Side: L R, LFE
    Частота : 48, 0 КГц
    Метод сжатия : С потерями
    Задержка видео : 1 с. 52 мс.
    Размер потока : 288 Мбайт (13%)
    Выравнивание : Разделение по промежуткам
    Продолжительность промежутка : 42 мс. (1, 00 видеокадр)
    Время предзагрузки промежутка : 500 мс.
    Заголовок : Профессиональный (многоголосый закадровый)
    Аудио #3
    Идентификатор : 3
    Формат : AC-3
    Формат/Информация : Audio Coding 3
    Расширение режима : CM (complete main)
    Параметр Endianness формата : Big
    Идентификатор кодека : 2000
    Продолжительность : 1 ч. 44 м.
    Вид битрейта : Постоянный
    Битрейт : 448 Кбит/сек
    Каналы : 6 каналов
    Расположение каналов : Front: L C R, Side: L R, LFE
    Частота : 48, 0 КГц
    Метод сжатия : С потерями
    Задержка видео : 1 с. 52 мс.
    Размер потока : 336 Мбайт (15%)
    Выравнивание : Разделение по промежуткам
    Продолжительность промежутка : 42 мс. (1, 00 видеокадр)
    Время предзагрузки промежутка : 500 мс.
    Заголовок : Английский

    Залил: Gepg

    Онлайн видео Скейтбордисты


    Размер скачиваемого торрента: 2.19 GB (2350819328 Bytes)

    Скейтбордисты/Grind (2003) WEB-DLRip | P
    загрузка...
    Рейтинг →
     (голосов: 1, оценка 4/5, голосовать можно 1 раз )

    Другие торренты по теме:

  • Скейтбордисты / Grind (2003) WEB-DLRip | P2 скачать торрент бесплатно


    • Комментарии (0):

      Информация

      Информация

        Посетители, находящиеся в группе Гости, не могут оставлять комментарии в данной новости.

        ↓ Меню



        ↓ Опрос

        А Вы добавили сайт в закладки?
        Да
        Не


        Top 10 за неделю (Фильмы)