.
Авторизация | Регистрация
» » Дама в очках и с ружьем в автомобиле / La dame dans lauto avec des lunettes et un fusil (2015) WEB-DL 1080p | iTunes скачать торрент бесплатно




    Дама в очках и с ружьем в автомобиле / La dame dans lauto avec des lunettes et un fusil (2015) WEB-DL 1080p | iTunes скачать торрент бесплатно

    Опубликовал: Админ | Дата: 19-11-2015, 05:00 | Просмотров: 86



    Детально о кино
    Русское название: Дама в очках и с ружьем в автомобиле
    Русское название в мировом прокате: La dame dans l;auto avec des lunettes et un fusil
    Создали в: 2015
    Категория жанра: триллер
    Главный режиссер: Жоанн Сфар

    Актеры
    Фрейя Мавор, Бенжамин Биолэй, Элио Джермано, Стэйси Мартин, Тьерри Анкиссе, Сандрин Ларош, Фредерик Этерлинк, Ален Белло, Эдуар Жиар, Франсуа-Доминик Блен

    Сюжет фильма
    Она самая прекрасная, самая чувственная, самая импульсивная, самая упрямая, самая незадачливая девушка. Она хотела воплотить мечту и увидеть море, а в результате попала в невероятную переделку. В чужом автомобиле и с трупом в багажнике, скрываясь от полиции и рискуя собственной жизнью, ей осталось только одно — убедить себя в том, что она еще не окончательно сошла с ума, и что она — это она, а не кто-то другой…


    Снималось в: Франция, Бельгия
    Время просмотра: 01: 34: 48
    Тип перевода: Дублированное iTunes
    Файл
    Тип видео: MKV
    Качество фильма: WEB-DL 1080p
    Информация о видео: MPEG-4 AVC, 4365 kb/s, 1920x804
    Информация о звуке: AC3, 384 kb/s (6 ch)
    MI

    Format : Matroska
    Format version : Version 4/Version 2
    File size : 3.21 GiB
    Duration : 1h 34mn
    Overall bit rate : 4 846 Kbps
    Encoded date : UTC 2015-11-18 20: 31: 02
    Writing application : mkvmerge v8.3.0 (;Over the Horizon;) 64bit
    Writing library : libebml v1.3.1 + libmatroska v1.4.2
    Video
    ID : 1
    Format : AVC
    Format/Info : Advanced Video Codec
    Format profile : High@L4
    Format settings, CABAC : Yes
    Format settings, ReFrames : 5 frames
    Codec ID : V_MPEG4/ISO/AVC
    Duration : 1h 34mn
    Bit rate : 4 365 Kbps
    Width : 1 920 pixels
    Height : 804 pixels
    Display aspect ratio : 2.40: 1
    Frame rate mode : Constant
    Frame rate : 24.000 fps
    Color space : YUV
    Chroma subsampling : 4: 2: 0
    Bit depth : 8 bits
    Scan type : Progressive
    Bits/(Pixel*Frame) : 0.118
    Stream size : 2.89 GiB (90%)
    Language : English
    Default : Yes
    Forced : No
    Color range : Limited
    Color primaries : BT.709
    Transfer characteristics : BT.709
    Matrix coefficients : BT.709
    Audio
    ID : 2
    Format : AC-3
    Format/Info : Audio Coding 3
    Mode extension : CM (complete main)
    Format settings, Endianness : Big
    Codec ID : A_AC3
    Duration : 1h 34mn
    Bit rate mode : Constant
    Bit rate : 384 Kbps
    Channel(s) : 6 channels
    Channel positions : Front: L C R, Side: L R, LFE
    Sampling rate : 48.0 KHz
    Bit depth : 16 bits
    Compression mode : Lossy
    Stream size : 260 MiB (8%)
    Language : Russian
    Default : Yes
    Forced : No
    Menu
    00: 00: 00.000 : en: Глава 1
    00: 02: 50.000 : en: Глава 2
    00: 12: 32.000 : en: Глава 3
    00: 22: 06.000 : en: Глава 4
    00: 31: 21.000 : en: Глава 5
    00: 38: 51.000 : en: Глава 6
    00: 48: 15.000 : en: Глава 7
    00: 57: 22.000 : en: Глава 8
    01: 07: 04.000 : en: Глава 9
    01: 16: 31.000 : en: Глава 10
    01: 24: 36.000 : en: Глава 11
    Скриншоты





    Онлайн видео Дама в очках и с ружьем в автомобиле


    Размер скачиваемого торрента: 3.21 GB (3446013638 Bytes)

    Дама в очках и с ружьем в автомобиле/La dame dans lauto avec des lunettes et un fusil (2015) WEB-DL 1080p | iTunes
    загрузка...
    Рейтинг →
     (голосов: 1, оценка 5/5, голосовать можно 1 раз )

    Другие торренты по теме:



      Комментарии (0):

      Информация

      Информация

        Посетители, находящиеся в группе Гости, не могут оставлять комментарии в данной новости.

        ↓ Меню



        ↓ Опрос

        А Вы добавили сайт в закладки?
        Да
        Не


        Top 10 за неделю (Фильмы)