.
Авторизация | Регистрация
Хочешь лучшие торренты? Добавь свой email!
Добавить
» » Кошачий принц / Koi princ (1979) DVDRip | L1 торрент скачать бесплатно




    Кошачий принц / Koi princ (1979) DVDRip | L1 торрент скачать бесплатно

    Опубликовал: Админ | Дата: 19-11-2015, 05:00 | Просмотров: 159



    Детально о кино
    Русское название: Кошачий принц
    Русское название в мировом прокате: Ko?i?? princ/Der Katzenprinz
    Создали в: 1979
    Категория жанра: семейный, приключения, сказка
    Главный режиссер: Ота Ковал

    Актеры
    Павел Гахл, Жанета Фухсова, Винфрид Глатцедер, Властимил Гашек, Яна Андрсова, Богумил Вавра, Алёна Кройцманнова, Вероника Тыблова, Тереза Бродска, Валери Капланова, Борис Хюбнер, Михал Тучны, Томаш Тинтера, Здена Седлакова, Яна Андресикова, Рюдигер Флакус, Мартин Янечек, Курт Сперлинг, Иржи Петков, Ярослава Шаллерова

    Сюжет фильма

    Мама, папа, двое детей - Радко и Терезка и кошка Лиза оказываются в старинном замке, где живёт молодой реставратор, не любящий кошек. Детям не удаётся уберечь от него Лизу. Чтобы оживить утопленную кошку, дети отправляются в сказочное путешествие за волшебным эликсиром...

    Снималось в: Чехословакия, ГДР
    Киностудия: Filmove studio Barrandov, Dramaturgicka skupina Oty Hofmana, Dramaturgicka skupina pro deti a mladez Oty Hofmana
    Время просмотра: 01: 18: 28
    Перевод текста: любительский одноголосый закадровый
    Файл
    Качество фильма: DVDRip
    Тип видео: AVI
    Кодек для видео: XviD
    Информация о видео: 720x544 (4: 3), 25.000 fps, 2292 kbps
    Информация о звуке #1: немецкий (AC3 2.0, 48 kHz, 192 kbps)
    Информация о звуке #2: русский (AC3 2.0, 48 kHz, 192 kbps)

    MediaInfo

    Общее
    Полное имя : Kocici.princ.1979.VO.DVDRip.avi
    Формат : AVI
    Формат/Информация : Audio Video Interleave
    Размер файла : 1, 47 Гбайт
    Продолжительность : 1 ч. 18 м.
    Общий поток : 2691 Кбит/сек
    Программа кодирования : VirtualDubMod 1.5.10.2 (build 2540/release)
    Библиотека кодирования : VirtualDubMod build 2540/release
    Видео
    Идентификатор : 0
    Формат : MPEG-4 Visual
    Профиль формата : Advanced Simple@L5
    Параметр BVOP формата : 1
    Параметр QPel формата : Нет
    Параметр GMC формата : Без точки перехода
    Параметр матрицы формата : Выборочная
    Идентификатор кодека : XVID
    Идентификатор кодека/Подсказка : XviD
    Продолжительность : 1 ч. 18 м.
    Битрейт : 2292 Кбит/сек
    Ширина : 720 пикселей
    Высота : 544 пикселя
    Соотношение сторон : 4: 3
    Частота кадров : 25, 000 кадров/сек
    Цветовое пространство : YUV
    Субдискретизация насыщенности : 4: 2: 0
    Битовая глубина : 8 бит
    Тип развёртки : Прогрессивная
    Метод сжатия : С потерями
    Бит/(Пиксели*Кадры) : 0.234
    Размер потока : 1, 26 Гбайт (85%)
    Библиотека кодирования : XviD 1.2.1 (UTC 2008-12-04)
    Аудио #1
    Идентификатор : 1
    Формат : AC-3
    Формат/Информация : Audio Coding 3
    Расширение режима : CM (complete main)
    Параметр Endianness формата : Big
    Идентификатор кодека : 2000
    Продолжительность : 1 ч. 18 м.
    Вид битрейта : Постоянный
    Битрейт : 192 Кбит/сек
    Каналы : 2 канала
    Расположение каналов : Front: L R
    Частота : 48, 0 КГц
    Метод сжатия : С потерями
    Размер потока : 108 Мбайт (7%)
    Выравнивание : Разделение по промежуткам
    Продолжительность промежутка : 40 мс. (1, 00 видеокадр)
    Время предзагрузки промежутка : 500 мс.
    Язык : Deutsch
    Аудио #2
    Идентификатор : 2
    Формат : AC-3
    Формат/Информация : Audio Coding 3
    Расширение режима : CM (complete main)
    Параметр Endianness формата : Big
    Идентификатор кодека : 2000
    Продолжительность : 1 ч. 18 м.
    Вид битрейта : Постоянный
    Битрейт : 192 Кбит/сек
    Каналы : 2 канала
    Расположение каналов : Front: L R
    Частота : 48, 0 КГц
    Метод сжатия : С потерями
    Размер потока : 108 Мбайт (7%)
    Выравнивание : Разделение по промежуткам
    Продолжительность промежутка : 40 мс. (1, 00 видеокадр)
    Время предзагрузки промежутка : 500 мс.

    Скриншоты

    Релиз
    Перевод текста: Severnyj
    Озвучание: Семен Ващенко
    Организация перевода и озвучания: Minhers76
    Релиз подготовил:

    Залил: makkaronni

    Онлайн видео Кошачий принц


    Размер скачиваемого торрента: 1.47 GB (1583724544 Bytes)

    Кошачий принц/Koi princ (1979) DVDRip | L1
    загрузка...
    Рейтинг →
     (голосов: 1, оценка 4/5, голосовать можно 1 раз )

    Другие торренты по теме:

  • Кошачий рай / Pussycats Paradise / For Members Only (1960) DVDRip
  • Кошачий глаз / Cats Eye
  • Кошачий глаз / Cats Eye (1985) BDRip 720p от MediaClub скачать через торрент бесплатно
  • Кошачий глаз / Cats Eye
  • Кошачий суп / Nekojiru-so (2001) DVDRip | L1
  • Кошачий суп / Nekojiru-so (2001) DVDRip | Sub
  • Кошачий глаз / Cats Eye (1985) BDRip от HQCLUB | P
  • Кошачий глаз / Cats Eye (1985) BDRip 1080p от HDReactor | P, A


    • Комментарии (0):

      Информация

      Информация

        Посетители, находящиеся в группе Гости, не могут оставлять комментарии в данной новости.

        ↓ Меню



        ↓ Опрос

        А Вы добавили сайт в закладки?
        Да
        Не


        Top 10 за месяц (Фильмы)