.
Авторизация | Регистрация
» » Убийства в Сен-Мало / Meurtres Saint-Malo (2013) HDTVRip-AVC | P скачать торрент бесплатно




    Убийства в Сен-Мало / Meurtres Saint-Malo (2013) HDTVRip-AVC | P скачать торрент бесплатно

    Опубликовал: Админ | Дата: 20-11-2015, 05:07 | Просмотров: 137



    Русское название: Убийства в Сен-Мало
    Русское название в мировом прокате: Meurtres ? Saint-Malo
    Создали в: 2013
    Категория жанра: Триллер, детектив
    Снималось в: Франция, AT-Production, Centre National de la Cin?matographie (CNC), France T?l?visions, Quad TГ©lГ©vision, R?gion Bretagne, Radio T?l?vision Belge Francofone (RTBF), TV5 Monde
    Главный режиссер: Лионель Байю

    Актеры
    Брюно Соло, Луиз Моно, Сванн Арло, Орельен Вик, Патрик Рейналь, Мики Себастьян, Оливье Клавери, Тьерри Барбет, Фейрия Делиба

    Сюжет фильма

    Полиция расследует странные обстоятельства убийства мужчины, обнаруженного закопанным по горло в песок на пляже Сен-Мало. Следы от пыток на теле жертвы указывают на то, что, возможно, это дело рук пиратов, так как очень напоминают почерк корсаров XVII века…

    Тип видео видео: MKV
    Информация о видео: High@L4.1 (H264), 1024x572, 25 fps, ~1972 kbps
    Информация о звуке: AC3, 48 kHz, 2 ch, 192 kbps
    Время просмотра: 01: 30: 27
    Перевод текста: Профессиональный многоголосый
    Рип с каналаЕврокино HD: yvr11
    M/I
    General
    Unique ID : 334900517221453216401194868401711015127 (0xFBF37E52C9EF77260C5E8351DD92E4D7)
    Complete name : D: Убийства в Сен-Мало.(2013).HDTVRIP-AVC.-=DoMiNo=-.mkv
    Format : Matroska
    Format version : Version 4/Version 2
    File size : 1.37 GiB
    Duration : 1h 30mn
    Overall bit rate : 2 168 Kbps
    Movie name : Убийства в Сен-Мало
    Writing application : XviD4PSP 7.0.186
    Writing library : Lavf56.25.101
    ORIGINAL_TITLE : Meurtres ? Saint-Malo
    DATE : 2013
    GENRE : триллер, детектив
    ENCODING_INFO : MATROSKA, WEBM MKV/H264 X264 VBR-2P 1972kbps Custom/MP2 AC3 CBR 192kbps
    SYNOPSIS : Полиция расследует странные обстоятельства убийства мужчины, обнаруженного закопанным по горло в песок на пляже Сен-Мало. Следы от пыток на теле жертвы указывают на то, что, возможно, это дело рук пиратов, так как очень напоминают почерк корсаров XVII века?
    ITUNEXTC : ru-movie|16+|375|
    ACTORS : Брюно Соло, Луиз Моно, Сванн Арло, Орельен Вик, Патрик Рейналь, Мики Себастьян, Оливье Клавери, Marina Keltchewsky, Тьерри Барбет, Фейрия Делиба, показать всех
    DIRECTOR : Лионель Байю
    PRODUCER : Ирис Бучер
    WRITER : Лионель Байю
    COUNTRY : Франция
    IMDB_RATING : 6.90
    Language : und
    FILENAME : cover.png
    Attachements : cover.png
    Video
    ID : 1
    Format : AVC
    Format/Info : Advanced Video Codec
    Format profile : High@L4.1
    Format settings, CABAC : Yes
    Format settings, ReFrames : 10 frames
    Codec ID : V_MPEG4/ISO/AVC
    Duration : 1h 30mn
    Bit rate : 1 972 Kbps
    Width : 1 024 pixels
    Height : 572 pixels
    Display aspect ratio : 16: 9
    Frame rate mode : Constant
    Frame rate : 25.000 fps
    Color space : YUV
    Chroma subsampling : 4: 2: 0
    Bit depth : 8 bits
    Scan type : Progressive
    Bits/(Pixel*Frame) : 0.135
    Stream size : 1.22 GiB (89%)
    Writing library : x264 core 148 r2638M 7599210
    Encoding settings : cabac=1/ref=10/deblock=1: -3: -3/analyse=0x3: 0x133/me=umh/subme=11/psy=1/psy_rd=1.00: 0.00/mixed_ref=1/me_range=33/chroma_me=1/trellis=2/8x8dct=1/cqm=0/deadzone=21, 11/fast_pskip=0/chroma_qp_offset=-2/threads=5/lookahead_threads=1/sliced_threads=0/nr=0/decimate=1/interlaced=0/bluray_compat=0/constrained_intra=0/bframes=9/b_pyramid=2/b_adapt=2/b_bias=0/direct=3/weightb=1/open_gop=0/weightp=2/keyint=250/keyint_min=25/scenecut=40/intra_refresh=0/rc=2pass/mbtree=0/bitrate=1972/ratetol=1.0/qcomp=0.60/qpmin=0/qpmax=69/qpstep=4/cplxblur=20.0/qblur=0.5/ip_ratio=1.40/pb_ratio=1.30/aq=1: 1.00
    Default : Yes
    Forced : No
    Color range : Limited
    Color primaries : BT.709
    Transfer characteristics : BT.709
    Matrix coefficients : BT.709
    Audio
    ID : 2
    Format : AC-3
    Format/Info : Audio Coding 3
    Mode extension : CM (complete main)
    Format settings, Endianness : Big
    Codec ID : A_AC3
    Duration : 1h 30mn
    Bit rate mode : Constant
    Bit rate : 192 Kbps
    Channel(s) : 2 channels
    Channel positions : Front: L R
    Sampling rate : 48.0 KHz
    Bit depth : 16 bits
    Compression mode : Lossy
    Delay relative to video : 27ms
    Stream size : 124 MiB (9%)
    Language : English
    Default : Yes
    Forced : No
    Скриншоты


    Онлайн видео Убийства в Сен-Мало


    Размер скачиваемого торрента: 1.37 GB (1470577339 Bytes)

    Убийства в Сен-Мало/Meurtres Saint-Malo (2013) HDTVRip-AVC | P
    загрузка...
    Рейтинг →
     (голосов: 1, оценка 3/5, голосовать можно 1 раз )

    Другие торренты по теме:

  • Убийство 3 / Forbrydelsen III (2012) HDTVRip 720p | Baibako торрент скачать бесплатно
  • Право на убийство / Righteous Kill (2008) HDRip от Scarabey | D торрент скачать бесплатно
  • Стаут Рекс - Подделка для убийства (1993) (2013) MP3 торрент скачать бесплатно
  • Убийство на удачу / Murder on Spec (2006) BDRip-AVC от Rulya74 | P торрент скачать бесплатно
  • Воспоминания об убийстве / Memories of Murder / Salinui chueok (2003) BDRip 1080p | P2 торрент скачать бесплатно
  • Идеальное убийство / A Perfect Murder (1998) BDRip 1080p торрент скачать бесплатно
  • Боязнь убийства / The Thrill of a Kill (2011) DVDRip | L1 торрент скачать бесплатно
  • Признание в убийстве / Я убийца / Confession of Murder (2012) HDTVRip | L2 торрент скачать бесплатно


    • Комментарии (0):

      Информация

      Информация

        Посетители, находящиеся в группе Гости, не могут оставлять комментарии в данной новости.

        ↓ Меню



        ↓ Опрос

        А Вы добавили сайт в закладки?
        Да
        Не


        Top 10 за неделю (Фильмы)