.
Авторизация | Регистрация
» » Левша / Southpaw (2015) HDRip | КПК | Лицензия скачать торрент бесплатно




    Левша / Southpaw (2015) HDRip | КПК | Лицензия скачать торрент бесплатно

    Опубликовал: Админ | Дата: 22-11-2015, 05:07 | Просмотров: 81


    • Левша/Southpaw •
    ? Снималось в: США
    ? Создали в: Escape Artists, Fuqua Films, Riche Productions, WanDa Pictures
    ? Создали в: 2015
    ? Категория жанра: драма, спорт, боевик, триллер
    ? Главный режиссёр: Антуан Фукуа
    ?
    Актеры
    Джейк Джилленхол, Рэйчел МакАдамс, Форест Уайтейкер, Наоми Харрис, Фифти Сент, Мигель Гомес, Бо Напп, Клер Фоли, Виктор Ортиц, Оона Лоренс, Скайлан Брукс, Доминик Колон, Дэвид Уэйлен, Адам Рэтклифф, Мишель Джонстон

    ? Перевод текста: Профессиональный (полное дублирование)


    Описание фильма
    У боксера Билли Хоупа все было прекрасно: звание чемпиона, красавица-жена и любимая дочка. Но фортуна отворачивается от него: при трагических обстоятельствах погибает любимая жена, дисквалификация на ринге, нулевые доходы, суд лишает его родительских прав… Хоуп должен отстоять звание чемпиона и вернуть дочь. Есть ли у Хоупа шансы на победу? Все решит его знаменитый хук левой…



    ? Качество фильма: HDRip
    ? Время просмотра: 02: 03: 49

    ? Тип видео: MP4
    ? Информация о видео кодек: H.264
    ? Информация о звуке кодек: AAC
    ? Свойства видео: 640x266 (2: 40: 1), 23.976 fps, 600 kbps (0.147 bit/pixel)
    ? Свойства аудио: 48.0 KHz, 2 ch, 128 kbps
    Mediainfo
    General
    Complete name : X: Всё для мобильных телефонов и КПКВидеоSouthpaw.2015.HDRip.mp4
    Format : MPEG-4
    Format profile : Base Media
    Codec ID : isom
    File size : 648 MiB
    Duration : 2h 3mn
    Overall bit rate mode : Variable
    Overall bit rate : 731 Kbps
    Encoded date : UTC 2015-11-20 18: 18: 39
    Tagged date : UTC 2015-11-20 18: 18: 39

    Video
    ID : 1
    Format : AVC
    Format/Info : Advanced Video Codec
    Format profile : High@L4.1
    Format settings, CABAC : Yes
    Format settings, ReFrames : 9 frames
    Codec ID : avc1
    Codec ID/Info : Advanced Video Coding
    Duration : 2h 3mn
    Bit rate : 600 Kbps
    Maximum bit rate : 1 655 Kbps
    Width : 640 pixels
    Height : 266 pixels
    Display aspect ratio : 2.40: 1
    Frame rate mode : Constant
    Frame rate : 23.976 fps
    Color space : YUV
    Chroma subsampling : 4: 2: 0
    Bit depth : 8 bits
    Scan type : Progressive
    Bits/(Pixel*Frame) : 0.147
    Stream size : 531 MiB (82%)
    Title : 264@GPAC0.5.2-DEV-rev248-g39d5978-master
    Writing library : x264 core 146 r2538 121396c
    Encoding settings : cabac=1/ref=9/deblock=1: -3: -3/analyse=0x3: 0x113/me=umh/subme=11/psy=1/psy_rd=1.00: 0.00/mixed_ref=1/me_range=32/chroma_me=1/trellis=2/8x8dct=1/cqm=0/deadzone=21, 11/fast_pskip=0/chroma_qp_offset=-2/threads=6/lookahead_threads=1/sliced_threads=0/nr=0/decimate=0/interlaced=0/bluray_compat=0/constrained_intra=0/bframes=9/b_pyramid=2/b_adapt=2/b_bias=0/direct=3/weightb=1/open_gop=0/weightp=2/keyint=240/keyint_min=23/scenecut=40/intra_refresh=0/rc=2pass/mbtree=0/bitrate=600/ratetol=1.0/qcomp=0.60/qpmin=0/qpmax=69/qpstep=4/cplxblur=20.0/qblur=0.5/ip_ratio=1.40/pb_ratio=1.30/aq=1: 1.00
    Encoded date : UTC 2015-11-20 18: 18: 39
    Tagged date : UTC 2015-11-20 18: 19: 08

    Audio
    ID : 2
    Format : AAC
    Format/Info : Advanced Audio Codec
    Format profile : LC
    Codec ID : 40
    Duration : 2h 3mn
    Bit rate mode : Variable
    Bit rate : 128 Kbps
    Maximum bit rate : 181 Kbps
    Channel(s) : 2 channels
    Channel positions : Front: L R
    Sampling rate : 48.0 KHz
    Compression mode : Lossy
    Stream size : 113 MiB (17%)
    Encoded date : UTC 2015-11-20 14: 15: 10
    Tagged date : UTC 2015-11-20 18: 19: 08

    Скриншоты

    Залил: ProT1gR
    Размер скачиваемого торрента: 647.82 MB (679289468 Bytes)

    Левша/Southpaw (2015) HDRip | КПК | Лицензия
    загрузка...
    Рейтинг →
     (голосов: 1, оценка 4/5, голосовать можно 1 раз )

    Другие торренты по теме:



      Комментарии (0):

      Информация

      Информация

        Посетители, находящиеся в группе Гости, не могут оставлять комментарии в данной новости.

        ↓ Меню



        ↓ Опрос

        А Вы добавили сайт в закладки?
        Да
        Не


        Top 10 за неделю (Фильмы)