.
Авторизация | Регистрация
Хочешь лучшие торренты? Добавь свой email!
Добавить
» » Девочка из океана / Ocean Girl (1995) DVDRip | P торрент скачать бесплатно




    Девочка из океана / Ocean Girl (1995) DVDRip | P торрент скачать бесплатно

    Опубликовал: Админ | Дата: 25-11-2015, 12:44 | Просмотров: 154



    Детально о кино
    Русское название: Девочка из океана
    Русское название в мировом прокате: Ocean Girl
    Создали в: 1994
    Категория жанра: фантастика, фэнтези, боевик, приключения, семейный
    Главный режиссер: Марк Дефрист, Колин Баддс, Брендан Махер

    Актеры
    Маржена Годеки, Дэвид Хофлин, Джеффри Уокер, Алекс Пиндер, Нина Лэндис, Лиз Берч, Брук Андерсон, Николас Белл, Тони Бриггс, Лорен Хьюитт

    Описание фильма
    Сериал о прекрасной Нери, ее друзьях, Джейсоне и Бретте, юных жителях подводной научно-исследовательской станции ОРКА. Нери, девочка из океана — смелая и находчивая, может плавать с необычайной скоростью. Но самая необычная ее способность — телепатически разговаривать и понимать 40-тоннового горбатого кита по имени Чарли.

    Снималось в: Австралия
    Время просмотра: 13x ~ 24 мин
    Перевод текста: Профессиональный (многоголосый, закадровый) - Арк-ТВ по заказу ГТРК Культура + Оригинал (английский)
    Файл
    Тип видео: AVI
    Качество фильма: DVDRip
    Информация о видео: 512x384, (4: 3), XviD, ~1900 Кбит/сек, 25, 000 кадров/сек
    Информация о звуке №1: MP3, 2 канала, 128 Кбит/сек, 48, 0 КГц
    Информация о звуке №2: MP3, 2 канала, 128 Кбит/сек, 48, 0 КГц
    Скриншоты:

    MediaInfo:
    Общее
    Полное имя : E: FilmOcean Girl 2Ocean.Girl.2x01.The.Return.DVDRip.Rus.Eng.avi
    Формат : AVI
    Формат/Информация : Audio Video Interleave
    Размер файла : 374 Мбайт
    Продолжительность : 23 м.
    Общий поток : 2192 Кбит/сек
    Программа кодирования : VirtualDubMod 1.5.10.2 (build 2540/release)
    Библиотека кодирования : VirtualDubMod build 2540/release
    Видео
    Идентификатор : 0
    Формат : MPEG-4 Visual
    Параметр BVOP формата : Да
    Параметр QPel формата : Нет
    Параметр GMC формата : Без точки перехода
    Параметр матрицы формата : Default (H.263)
    Идентификатор кодека : XVID
    Идентификатор кодека/Подсказка : XviD
    Продолжительность : 23 м.
    Битрейт : 1921 Кбит/сек
    Ширина : 512 пикселей
    Высота : 384 пикселя
    Соотношение сторон : 4: 3
    Частота кадров : 25, 000 кадров/сек
    Цветовое пространство : YUV
    Субдискретизация насыщенности : 4: 2: 0
    Битовая глубина : 8 бит
    Тип развёртки : Прогрессивная
    Метод сжатия : С потерями
    Бит/(Пиксели*Кадры) : 0.391
    Размер потока : 328 Мбайт (88%)
    Аудио #1
    Идентификатор : 1
    Формат : MPEG Audio
    Версия формата : Version 1
    Профиль формата : Layer 3
    Режим : Joint stereo
    Расширение режима : MS Stereo
    Идентификатор кодека : 55
    Идентификатор кодека/Подсказка : MP3
    Продолжительность : 23 м.
    Вид битрейта : Постоянный
    Битрейт : 128 Кбит/сек
    Каналы : 2 канала
    Частота : 48, 0 КГц
    Метод сжатия : С потерями
    Размер потока : 21, 8 Мбайт (6%)
    Выравнивание : Соединение по промежуткам
    Продолжительность промежутка : 40 мс. (1, 00 видеокадр)
    Время предзагрузки промежутка : 504 мс.
    Аудио #2
    Идентификатор : 2
    Формат : MPEG Audio
    Версия формата : Version 1
    Профиль формата : Layer 3
    Режим : Joint stereo
    Идентификатор кодека : 55
    Идентификатор кодека/Подсказка : MP3
    Продолжительность : 23 м.
    Вид битрейта : Постоянный
    Битрейт : 128 Кбит/сек
    Каналы : 2 канала
    Частота : 48, 0 КГц
    Метод сжатия : С потерями
    Размер потока : 21, 8 Мбайт (6%)
    Выравнивание : Разделение по промежуткам
    Продолжительность промежутка : 40 мс. (1, 00 видеокадр)
    Время предзагрузки промежутка : 500 мс.

    Залил: Gepg

    Онлайн видео Девочка из океана


    Размер скачиваемого торрента: 4.74 GB (5092153344 Bytes)

    Девочка из океана/Ocean Girl (1995) DVDRip | P
    загрузка...
    Рейтинг →
     (голосов: 1, оценка 5/5, голосовать можно 1 раз )

    Другие торренты по теме:

  • Девочка из океана / Ocean Girl (1996-97) IPTVRip | P


    • Комментарии (0):

      Информация

      Информация

        Посетители, находящиеся в группе Гости, не могут оставлять комментарии в данной новости.

        ↓ Меню



        ↓ Опрос

        А Вы добавили сайт в закладки?
        Да
        Не


        Top 10 за месяц (Фильмы)