.
Авторизация | Регистрация
Хочешь лучшие торренты? Добавь свой email!
Добавить
» » Ужастики / Goosebumps (2015) CAMRip | L1 торрент скачать бесплатно




    Ужастики / Goosebumps (2015) CAMRip | L1 торрент скачать бесплатно

    Опубликовал: Админ | Дата: 26-11-2015, 05:01 | Просмотров: 154



    Детально о кино
    Русское название: Ужастики
    Русское название в мировом прокате: Goosebumps
    Создали в: 2015
    Категория жанра: фэнтези, комедия, приключения
    Главный режиссер: Роб Леттерман

    Актеры
    Дилан Миннетт, Одейя Раш, Эми Райан, Райан Ли, Джиллиан Белл, Джек Блэк, Кен Марино, Холстон Сейдж, Стивен Крюгер, Кит А. Болден

    Сюжет фильма
    Зак переезжает с родителями в провинциальный городок, где знакомится с очаровательной соседкой Ханной. Он узнает, что ее отец — Роберт Стайн, знаменитый писатель, автор популярной серии триллеров для подростков Ужастики, у которого есть мрачная тайна. Стайн — пленник собственных историй: монстры из его произведений вполне реальны, и он пишет свои книги для того, чтобы запереть чудовищ на их страницах, защищая своих читателей. По случайному стечению обстоятельств Зак выпускает монстров на волю…


    Снималось в: США, Австралия/Columbia Pictures, LStar Capital, Original Film, Scholastic Entertainment, Sony Pictures Animation, Sony Pictures Entertainment (SPE), Village Roadshow Pictures
    Время просмотра: 01: 34: 08
    Тип перевода: Любительское (одноголосое) VANO
    Файл
    Тип видео: AVI (XviD)
    Качество фильма: CAMRip
    Информация о видео: MPEG4, XviD, 720x288 (2.500), 29.970 fps, 1 875 Kbps (0.302 bit/pixel)
    Информация о звуке: AC-3, 48.0 KHz, 2 ch, 192 Kbps, CBR
    Размер скачиваемого торрента: 1.37 GB
    Скачать: Сэмпл
    mi
    General
    Complete name : G0oSebUm5s.2015.L1.CAMRip.avi
    Format : AVI
    Format/Info : Audio Video Interleave
    File size : 1.37 GiB
    Duration : 1h 34mn
    Overall bit rate : 2 079 Kbps
    Movie name : G0oSebUm5s.2015.L1.CAMRip
    Writing application : VirtualDubMod 1.5.10.3 | www.virtualdub-fr.org || (build 2550/release)
    Copyright : UNIONGANGRUSTORRENTS
    Video
    ID : 0
    Format : MPEG-4 Visual
    Format profile : Advanced Simple@L5
    Format settings, BVOP : 2
    Format settings, QPel : No
    Format settings, GMC : No warppoints
    Format settings, Matrix : Default (MPEG)
    Codec ID : XVID
    Codec ID/Hint : XviD
    Duration : 1h 34mn
    Bit rate : 1 795 Kbps
    Width : 720 pixels
    Height : 288 pixels
    Display aspect ratio : 2.500
    Frame rate : 29.970 fps
    Color space : YUV
    Chroma subsampling : 4: 2: 0
    Bit depth : 8 bits
    Scan type : Progressive
    Compression mode : Lossy
    Bits/(Pixel*Frame) : 0.289
    Stream size : 1.18 GiB (86%)
    Writing library : XviD 1.2.1 (UTC 2008-12-04)
    Audio
    ID : 1
    Format : AC-3
    Format/Info : Audio Coding 3
    Mode extension : CM (complete main)
    Format settings, Endianness : Big
    Codec ID : 2000
    Duration : 1h 34mn
    Bit rate mode : Constant
    Bit rate : 192 Kbps
    Channel(s) : 2 channels
    Channel positions : Front: L R
    Sampling rate : 48.0 KHz
    Bit depth : 16 bits
    Compression mode : Lossy
    Stream size : 129 MiB (9%)
    Alignment : Split accross interleaves
    Скриншоты | повтор:



    Онлайн видео Ужастики


    Размер скачиваемого торрента: 1.37 GB (1467543552 Bytes)

    Ужастики/Goosebumps (2015) CAMRip | L1
    загрузка...
    Рейтинг →
     (голосов: 1, оценка 3/5, голосовать можно 1 раз )

    Другие торренты по теме:

  • Ужастики / Goosebumps (2015) WEBRip | L2
  • Ужастики / Goosebumps (2015) WEBRip 720p | Чистый звук
  • Ужастики / Goosebumps (2015) WEB-DLRip | iTunes
  • Ужастики / Goosebumps (2015) BDRip 720p | iTunes
  • Ужастики / Goosebumps (2015) BDRip 1080p | iTunes
  • Ужастики / Goosebumps (2015) BDRip 720p | iTunes
  • Ужастики / Goosebumps (2015) HDRip | iTunes
  • Ужастики / Goosebumps (2015) BDRip 720p от Scarabey | iTunes


    • Комментарии (0):

      Информация

      Информация

        Посетители, находящиеся в группе Гости, не могут оставлять комментарии в данной новости.

        ↓ Меню



        ↓ Опрос

        А Вы добавили сайт в закладки?
        Да
        Не


        Top 10 за месяц (Фильмы)