.
Авторизация | Регистрация
» » Пржевальский (1951) DVDRip от New-Team скачать торрент бесплатно




    Пржевальский (1951) DVDRip от New-Team скачать торрент бесплатно

    Опубликовал: Админ | Дата: 26-11-2015, 05:01 | Просмотров: 110



    Снималось в: СССР
    Создали в: Мосфильм
    Категория жанра: драма, биография
    Создали в: 1951
    Время просмотра: 01: 47: 34
    Перевод текста: Не требуется
    Субтитры подготовлены: нет
    Оригинальная аудиодорожка: русский
    Главный режиссер: Сергей Юткевич

    Актеры

    Сергей Папов, Всеволод Ларионов, Борис Тенин, Цырен (Цыренжап) Шагжин, Георгий Слабиняк, Николай Комиссаров, Владимир Всеволодов, Николай Свободин, Сергей Мартинсон, Василий Бокарев, Владимир Таскин, Сергей Ценин, Кэн Джен, Тэн Лун, Лян Лен-Дзу, Ван Гуан-Дэ, Пак Чун-Сеп, Ким Дин, Цэдэн Дамдинов, Дагба Дондуков, Петр Николаев...
    Полный список актёров
    Описание:
    Фильм посвящен знаменитому русскому путешественнику Николаю Михайловичу Пржевальскому, руководившему экспедицией в Уссурийский край и четырьмя научными экспедициями в Центральную Азию (1870-1885 гг.).
    Пржевальский впервые описал природу Центральной Азии, открыл много хребтов, озер и рек; собрал ценные коллекции растений и животных, впервые описал дикого верблюда, дикую лошадь и тибетского медведя.
    Он был похоронен на берегу озера Иссык-Куль (близ нынешнего г. Пржевальска).Там же находится его музей. Память Пржевальского увековечена также путем присвоения его имени открытой им дикой лошади.



    Источник: DVD5 R5
    Качество фильма видео: DVDRip
    Тип видео видео: AVI
    Информация о видео: 576x432 (4: 3), 25 fps, XviD ~ 832 kbps avg, 0.134 bit/pixel
    Информация о звуке: 48 kHz, MP3 2.0, 128 kbps
    Раздача от:
    MediaInfo

    Общее
    Полное имя : Przhevalskiy.1951.DVDRip-745_New-team_by_AVP_Studio.avi
    Формат : AVI
    Формат/Информация : Audio Video Interleave
    Размер файла : 746 Мбайт
    Продолжительность : 1 ч. 47 м.
    Общий поток : 970 Кбит/сек
    Программа кодирования : VirtualDubMod 1.5.10.3 | www.virtualdub-fr.org || (build 2550/release)
    Библиотека кодирования : VirtualDubMod build 2550/release
    Видео
    Идентификатор : 0
    Формат : MPEG-4 Visual
    Профиль формата : Advanced Simple@L5
    Параметр BVOP формата : 1
    Параметр QPel формата : Нет
    Параметр GMC формата : Без точки перехода
    Параметр матрицы формата : Выборочная
    Идентификатор кодека : XVID
    Идентификатор кодека/Подсказка : XviD
    Продолжительность : 1 ч. 47 м.
    Битрейт : 832 Кбит/сек
    Ширина : 576 пикселей
    Высота : 432 пикселя
    Соотношение сторон : 4: 3
    Частота кадров : 25, 000 кадров/сек
    Цветовое пространство : YUV
    Субдискретизация насыщенности : 4: 2: 0
    Битовая глубина : 8 бит
    Тип развёртки : Прогрессивная
    Метод сжатия : С потерями
    Бит/(Пиксели*Кадры) : 0.134
    Размер потока : 640 Мбайт (86%)
    Библиотека кодирования : XviD 73
    Аудио
    Идентификатор : 1
    Формат : MPEG Audio
    Версия формата : Version 1
    Профиль формата : Layer 3
    Идентификатор кодека : 55
    Идентификатор кодека/Подсказка : MP3
    Продолжительность : 1 ч. 47 м.
    Вид битрейта : Постоянный
    Битрейт : 128 Кбит/сек
    Каналы : 2 канала
    Частота : 48, 0 КГц
    Метод сжатия : С потерями
    Размер потока : 98, 5 Мбайт (13%)
    Выравнивание : Соединение по промежуткам
    Продолжительность промежутка : 40 мс. (1, 00 видеокадр)
    Время предзагрузки промежутка : 504 мс.
    Библиотека кодирования : LAME3.99r
    Залил: AVPStudio

    Онлайн видео Пржевальский (1951) DVDRip от New


    Размер скачиваемого торрента: 745.87 MB (782100480 Bytes)


    Пржевальский (1951) DVDRip от New-Team
    загрузка...
    Рейтинг →
     (голосов: 1, оценка 4/5, голосовать можно 1 раз )

    Другие торренты по теме:

  • Пржевальский (1951) DVDRip от New-Team скачать торрент бесплатно


    • Комментарии (0):

      Информация

      Информация

        Посетители, находящиеся в группе Гости, не могут оставлять комментарии в данной новости.

        ↓ Меню



        ↓ Опрос

        А Вы добавили сайт в закладки?
        Да
        Не


        Top 10 за неделю (Фильмы)