.
Авторизация | Регистрация
Хочешь лучшие торренты? Добавь свой email!
Добавить
» » Прометей / Prometheus (2012) HDTVRip | P | Первый канал торрент скачать бесплатно




    Прометей / Prometheus (2012) HDTVRip | P | Первый канал торрент скачать бесплатно

    Опубликовал: Админ | Дата: 29-11-2015, 05:01 | Просмотров: 138



    Детально о кино
    Русское название: Прометей
    Русское название в мировом прокате: Prometheus
    Создали в: 2012
    Главный режиссер: Ридли Скотт

    Актеры
    Нуми Рапас, Майкл Фассбендер, Шарлиз Терон, Идрис Эльба, Гай Пирс, Логан Маршалл-Грин, Шон Харрис, Рейф Сполл, Иман Эллиотт, Бенедикт Вонг

    Сюжет фильма

    В поисках сакрального знания группа ученых отправляется в самые темные и неизведанные чертоги вселенной. Именно там, в отдаленных мирах, находясь на пределе своих умственных и физических возможностей, им предстоит вступить в безжалостную схватку за будущее всего человечества…

    Снималось в: США, Великобритания
    Время просмотра: 01: 53: 11
    Перевод текста: Профессиональный (многоголосый, закадровый) 1 канал
    Файл
    Кодек для видео: Xvid
    Качество фильма: HDTVRip
    Информация о видео: 720x400 (16: 9), 25.000 fps, 1 636 Kbps (0.227 bit/pixel)
    Информация о звуке: AC-3, 48.0 KHz, 2 ch, 192 Kbps, CBR
    Семпл
    Скриншоты

    MediaInfo
    Общее
    Полное имя : D: Прометей.avi
    Формат : AVI
    Формат/Информация : Audio Video Interleave
    Размер файла : 1, 45 Гбайт
    Продолжительность : 1 ч. 53 м.
    Общий поток : 1838 Кбит/сек
    Название фильма : Прометей/Prometheus (2012)
    Программа кодирования : VirtualDubMod 1.5.10.2 (build 2540/release)
    Библиотека кодирования : VirtualDubMod build 2540/release
    Правообладатель : miha2154
    Видео
    Идентификатор : 0
    Формат : MPEG-4 Visual
    Профиль формата : Advanced Simple@L5
    Параметр BVOP формата : 1
    Параметр QPel формата : Нет
    Параметр GMC формата : Без точки перехода
    Параметр матрицы формата : Выборочная
    Идентификатор кодека : XVID
    Идентификатор кодека/Подсказка : XviD
    Продолжительность : 1 ч. 53 м.
    Продолжительность оригинала : 1 ч. 9 м.
    Битрейт : 1786 Кбит/сек
    Ширина : 720 пикселей
    Высота : 400 пикселей
    Соотношение сторон : 16: 9
    Частота кадров : 25, 000 кадров/сек
    Цветовое пространство : YUV
    Субдискретизация насыщенности : 4: 2: 0
    Битовая глубина : 8 бит
    Тип развёртки : Прогрессивная
    Метод сжатия : С потерями
    Бит/(Пиксели*Кадры) : 0.248
    Размер потока : 888 Мбайт (60%)
    Библиотека кодирования : XviD 65
    Аудио
    Идентификатор : 1
    Формат : AC-3
    Формат/Информация : Audio Coding 3
    Расширение режима : CM (complete main)
    Параметр Endianness формата : Big
    Идентификатор кодека : 2000
    Продолжительность : 1 ч. 53 м.
    Продолжительность оригинала : 1 ч. 9 м.
    Вид битрейта : Постоянный
    Битрейт : 192 Кбит/сек
    Каналы : 2 канала
    Расположение каналов : Front: L R
    Частота : 48, 0 КГц
    Битовая глубина : 16 бит
    Метод сжатия : С потерями
    Размер потока : 95, 4 Мбайт (6%)
    Выравнивание : Разделение по промежуткам
    Продолжительность промежутка : 40 мс. (1, 00 видеокадр)
    Время предзагрузки промежутка : 500 мс.
    Заголовок : Профессиональный (многоголосый закадровый) 1 канал

    Доп. инфо.
    Рип с канала Первый HD. Из видеоряда удален логотип, остались послерекламные вставки с названием фильма. http://screenshotcomparison.com/comparison/146967




    Онлайн видео Прометей


    Размер скачиваемого торрента: 1.45 GB (1560410112 Bytes)

    Прометей/Prometheus (2012) HDTVRip | P | Первый канал
    загрузка...
    Рейтинг →
     (голосов: 1, оценка 4/5, голосовать можно 1 раз )

    Другие торренты по теме:

  • Прометей / Prometheus (2012) BDRip 1080p | 60 fps
  • Прометей / Prometheus (2012) BDRip 720p | 60 fps | D, A скачать через торрент бесплатно
  • Прометей / Prometheus (2012) BDRip 1080p | FAN Cut скачать через торрент бесплатно
  • OST - Прометей / Prometheus (Expanded) (2012) MP3 скачать через торрент бесплатно
  • Прометей / Prometheus (2012) BDRip 1080p от GORESEWAGE | 3D-Video
  • Прометей / Prometheus (2012) BDRemux 1080p от GORESEWAGE
  • Прометей / Prometheus (2012) BDRip 1080p от GORESEWAGE
  • Прометей / Prometheus (2012) BDRip 720p от GORESEWAGE


    • Комментарии (0):

      Информация

      Информация

        Посетители, находящиеся в группе Гости, не могут оставлять комментарии в данной новости.

        ↓ Меню



        ↓ Опрос

        А Вы добавили сайт в закладки?
        Да
        Не


        Top 10 за месяц (Фильмы)