.
Авторизация | Регистрация
Хочешь лучшие торренты? Добавь свой email!
Добавить
» » Боевой киносборник № 5-6 (1941) DVDRip от New-Team торрент скачать бесплатно




    Боевой киносборник № 5-6 (1941) DVDRip от New-Team торрент скачать бесплатно

    Опубликовал: Админ | Дата: 30-11-2015, 05:00 | Просмотров: 133



    Снималось в: СССР
    Создали в: Госкино, Мосфильм, Союздетфильм
    Категория жанра: короткометражка, военный
    Создали в: 1941
    Время просмотра: 01: 52: 44 (00: 51: 59+01: 00: 45)
    Перевод текста: не требуется
    Оригинальная аудиодорожка: русский
    Субтитры подготовлены: нет
    Главный режиссер: Михаил Слуцкий, Михаил Доллер, Всеволод Пудовкин, Владимир Вайншток

    Актеры

    Любовь Орлова, Виктор Аркасов, Владимир Шишкин, В. Миронов, Николай Хрящиков, Елена Ануфриева, Петр Савин, Анастасия Зуева, Павел Герага, Александр Румнев, Елизавета Кузюрина, Владимир Уральский, Александра Данилова...
    Описание:
    Первый из Боевых киносборников вышел через полтора месяца после начала Великой Отечественной войны 2 августа 1941 года…



    Исходник: DVD5 R5
    Тип релиза: DVDRip
    Контейнер: AVI
    Информация о видео: 576x432 (4: 3), 25 fps, XviD ~ 785 kbps avg, 0.126 bit/pixel
    Информация о звуке: 48 kHz, MP3 2.0, 128 kbps
    Раздача от:
    Краткое содержание новелл

    Боевой киносборник № 5 (52 мин.)
    Лондон не сдастся!
    Хроника союзников-англичан, которых фашистские воздушные пираты пытаются закидывать бомбами, но, благодаря мудрому руководству британских военных, все попытки нацистских упырей терпят позорный крах. Прямолинейный юмор в духе забил снаряд я в пушку туго.
    Наша Москва
    Бандиты (немцев в фильмах именуют не иначе, как убийцами и бандитами, крадущимися под покровом ночи) наседают, но столица спокойна: работают рестораны, магазины и молокозавод. Камера вскользь упоминает Любовь Орлову, интеллигентно пьющую кофе за столиком кафе. Зенитки цепко смотрят в небо. По периметру города в засадах сидят истребители. Левитан внушительно сообщает, что москвичам нечего бояться…
    Песня Священная война (Александр Александров – Василий Лебедев-Кумач)
    Звучит на фоне документальных кадров, снабжена субтитрами
    Боевой киносборник № 6 (60 мин.)
    Женщины воздушного флота
    Английский фильм, где союзники превозносят своих смелых леди, служащих в наземных частях ВВС Её Величества: радистками и поварихами, вместе со своими мужьями, теми, что в небе, кующими, так сказать, победу. Несмотря на то, что на дворе лишь 41-й, и до победы ещё катастрофически далеко.
    Ненависть
    Советский офицер, захвативший в плен сбитого фашистского людоеда, немецкого летчика-истребителя, только что обстрелявшего мирное село, встречает в лесу старика, внук которого попал под людоедские пули. Глядя в полные ненависти глаза деда, фашист испытывает огромные угрызения совести и обещает выдать всю секретную информацию, какая только ему известна.
    Пир в Жирмунке
    Одно из лучших произведений кинодраматургии. В основе этой новеллы лежит подлинный факт, почерпнутый из материалов Совинформбюро.
    Старая женщина Прасковья остается в деревне оккупированной немцами с тем, чтобы отомстить им за все злодеяния. Для этого она придумала такой план: усыпить подозрения фашистов (когда они придут к ней за продуктами) и угостить как можно больше захватчиков отравленной пищей. Чтобы у врагов не осталось никаких сомнений в ее искренности, она вместе с ним ест отравленную пищу и вместе с ними гибнет.
    Песнь о русском воине, позже известная под названием Воевать мы мастера (Тихон Хренников – Василий Лебедев-Кумач)
    Экранизация боевой песни о славе русского оружия иллюстрируется отдельными кадрами из исторических фильмов Александр Невский, Петр I, Суворов, а также хроникой военных действий.
    В титрах значится: Исполняет Николай Крючков, но на самом деле он поёт в кадре под фонограмму Владимира Захарова

    MediaInfo

    Общее
    Полное имя : Boevoy.kinosbornik.№5-6.1941.DVDRip-745_New-team_by_AVP_Studio.avi
    Формат : AVI
    Формат/Информация : Audio Video Interleave
    Размер файла : 401 Мбайт
    Продолжительность : 1 ч. 0 м.
    Общий поток : 923 Кбит/сек
    Программа кодирования : VirtualDubModRus 1.5.10.2 (build 2542/release)
    Библиотека кодирования : VirtualDubMod build 2542/release
    Видео
    Идентификатор : 0
    Формат : MPEG-4 Visual
    Профиль формата : Advanced Simple@L5
    Параметр BVOP формата : 1
    Параметр QPel формата : Нет
    Параметр GMC формата : Без точки перехода
    Параметр матрицы формата : Выборочная
    Идентификатор кодека : XVID
    Идентификатор кодека/Подсказка : XviD
    Продолжительность : 1 ч. 0 м.
    Битрейт : 785 Кбит/сек
    Ширина : 576 пикселей
    Высота : 432 пикселя
    Соотношение сторон : 4: 3
    Частота кадров : 25, 000 кадров/сек
    Цветовое пространство : YUV
    Субдискретизация насыщенности : 4: 2: 0
    Битовая глубина : 8 бит
    Тип развёртки : Прогрессивная
    Метод сжатия : С потерями
    Бит/(Пиксели*Кадры) : 0.126
    Размер потока : 341 Мбайт (85%)
    Библиотека кодирования : XviD 73
    Аудио
    Идентификатор : 1
    Формат : MPEG Audio
    Версия формата : Version 1
    Профиль формата : Layer 3
    Идентификатор кодека : 55
    Идентификатор кодека/Подсказка : MP3
    Продолжительность : 1 ч. 0 м.
    Вид битрейта : Постоянный
    Битрейт : 128 Кбит/сек
    Каналы : 2 канала
    Частота : 48, 0 КГц
    Метод сжатия : С потерями
    Размер потока : 55, 6 Мбайт (14%)
    Выравнивание : Соединение по промежуткам
    Продолжительность промежутка : 40 мс. (1, 00 видеокадр)
    Время предзагрузки промежутка : 504 мс.
    Библиотека кодирования : LAME3.99r
    Залил: AVPStudio

    Онлайн видео Боевой киносборник № 5


    Размер скачиваемого торрента: 743.96 MB (780095488 Bytes)


    Боевой киносборник № 5-6 (1941) DVDRip от New-Team
    загрузка...
    Рейтинг →
     (голосов: 1, оценка 3/5, голосовать можно 1 раз )

    Другие торренты по теме:

  • Боевой клуб / Wu guan (1981) DVDRip от ikusha76
  • Боевой конь / War Horse (2011) BDRip-AVC | iPad
  • Госдеп - 3 с Ксенией Собчак. Боевой пистолет как доступ к правосудию. Олег Михеев и Михаил Делягин (2013) SATRip от РиперАМ
  • Лорды Войны: Боевой Клич: Антология / Warlords Battlecry: Antology (2000-2004) PC | Repack от UnSlayeR
  • Боевой конь / War Horse (2010) BDRip 1080p
  • Н.Г. Аблясов, Г.В. Булгакова (ред) - Боевой устав Сухопутных Войск. Часть II. Батальон, рота (1982) DJVU
  • На боевой повозке Жижки / Na Zizkove vlecnm voze (1968) TVRip | L1
  • Боевой конь / War Horse (2011) BDRip 720p от Leonardo and Scarabey | Лицензия


    • Комментарии (0):

      Информация

      Информация

        Посетители, находящиеся в группе Гости, не могут оставлять комментарии в данной новости.

        ↓ Меню



        ↓ Опрос

        А Вы добавили сайт в закладки?
        Да
        Не


        Top 10 за месяц (Фильмы)