.
Авторизация | Регистрация
Хочешь лучшие торренты? Добавь свой email!
Добавить
» » Фантастическая четверка / Fantastic Four (2015) BDRip 1080p от BlueBird | Лицензия торрент скачать бесплатно




    Фантастическая четверка / Fantastic Four (2015) BDRip 1080p от BlueBird | Лицензия торрент скачать бесплатно

    Опубликовал: Админ | Дата: 3-12-2015, 05:00 | Просмотров: 65



    Детально о кино
    Русское название: Фантастическая четверка
    Русское название в мировом прокате: Fantastic Four
    Создали в: 2015
    Категория жанра: фантастика, боевик, приключения
    Главный режиссер: Джош Транк

    Актеры
    Майлз Теллер, Майкл Б. Джордан, Кейт Мара, Джейми Белл, Тоби Кеббелл, Рег Э. Кэти, Тим Блейк Нельсон, Джошуа Монтес, Дэн Кастелланета, Оуэн Джадж

    Сюжет фильма

    История о четырех молодых астронавтах, которые отважились на авантюрное путешествие в параллельное измерение для исследования аномальной волны космической энергии. Вернувшись из путешествия, они обнаружили у себя суперспособности, которые навсегда изменили их жизни…
    Снималось в: США, Германия, Великобритания, Канада
    Киностудия: 20th Century Fox Film Corporation, Marvel Entertainment
    Время просмотра: 01: 39: 58
    Перевод текста: Профессиональный (дублированный) Blu-ray EUR
    Релиз:
    Файл
    Тип видео: Matroska
    Информация о видео: 1920x804 at 23.976 fps, x264@L4.1, ~12.5 Mbps avg
    Aудио#1: Russian: 48 kHz, DTS, 3/2 (L, C, R, l, r) + LFE ch, ~768 kbps avg|Дубляж, Blu-ray EUR|
    Aудио#2: Ukrainian: 48 kHz, AC3, 3/2 (L, C, R, l, r) + LFE ch, ~448 kbps avg|Дубляж, Blu-ray EUR|
    Aудио#3: English: 48 kHz, DTS-ES, 3/2 (L, C, R, l, r) + LFE ch, ~1536 kbps avg
    Субтитры: Russian (Forced, iTunes), Russian (iTunes), Ukrainian (iTunes), English, English (SDH)
    MI
    Общее
    Уникальный идентификатор : 181907657114307645847309969633408283821 (0x88DA23F0ECDB1F00A36100B1A27174AD)
    Полное имя : Fantastic.Four.2015.BDRip.1080p.BLUEBIRD.mkv
    Формат : Matroska
    Версия формата : Version 2
    Размер файла : 10, 6 Гбайт
    Продолжительность : 1 ч. 39 м.
    Общий поток : 15, 2 Мбит/сек
    Название фильма : BLUEBIRD
    Дата кодирования : UTC 2015-12-02 13: 24: 41
    Программа кодирования : mkvmerge v7.9.0 (;Birds;) 64bit
    Библиотека кодирования : libebml v1.3.1 + libmatroska v1.4.2
    Видео
    Идентификатор : 1
    Формат : AVC
    Формат/Информация : Advanced Video Codec
    Профиль формата : High@L4.1
    Параметр CABAC формата : Да
    Параметр ReFrames формата : 5 кадров
    Идентификатор кодека : V_MPEG4/ISO/AVC
    Продолжительность : 1 ч. 39 м.
    Битрейт : 12, 5 Мбит/сек
    Ширина : 1920 пикселей
    Высота : 804 пикселя
    Соотношение сторон : 2, 40: 1
    Режим частоты кадров : Постоянный
    Частота кадров : 23, 976 кадра/сек
    Цветовое пространство : YUV
    Субдискретизация насыщенности : 4: 2: 0
    Битовая глубина : 8 бит
    Тип развёртки : Прогрессивная
    Бит/(Пиксели*Кадры) : 0.338
    Размер потока : 8, 52 Гбайт (80%)
    Заголовок : BLUEBIRD
    Библиотека кодирования : x264 core 148 r2597 e86f3a1
    Настройки программы : cabac=1/ref=5/deblock=1: -3: -3/analyse=0x3: 0x113/me=umh/subme=11/psy=1/psy_rd=1.00: 0.00/mixed_ref=1/me_range=32/chroma_me=1/trellis=2/8x8dct=1/cqm=0/deadzone=21, 11/fast_pskip=0/chroma_qp_offset=-2/threads=12/lookahead_threads=3/sliced_threads=0/nr=0/decimate=0/interlaced=0/bluray_compat=0/constrained_intra=0/bframes=10/b_pyramid=2/b_adapt=2/b_bias=0/direct=3/weightb=1/open_gop=1/weightp=2/keyint=240/keyint_min=23/scenecut=40/intra_refresh=0/rc_lookahead=40/rc=2pass/mbtree=0/bitrate=12500/ratetol=1.0/qcomp=0.60/qpmin=0/qpmax=69/qpstep=4/cplxblur=20.0/qblur=0.5/vbv_maxrate=50000/vbv_bufsize=62500/nal_hrd=none/filler=0/ip_ratio=1.40/pb_ratio=1.30/aq=3: 0.90
    Default : Да
    Forced : Нет
    Аудио #1
    Идентификатор : 2
    Формат : DTS
    Формат/Информация : Digital Theater Systems
    Режим : 16
    Параметр Endianness формата : Big
    Идентификатор кодека : A_DTS
    Продолжительность : 1 ч. 39 м.
    Вид битрейта : Постоянный
    Битрейт : 768 Кбит/сек
    Каналы : 6 каналов
    Расположение каналов : Front: L C R, Side: L R, LFE
    Частота : 48, 0 КГц
    Битовая глубина : 24 бит
    Метод сжатия : С потерями
    Размер потока : 549 Мбайт (5%)
    Заголовок : Blu-ray EUR
    Язык : Russian
    Default : Да
    Forced : Нет
    Аудио #2
    Идентификатор : 3
    Формат : AC-3
    Формат/Информация : Audio Coding 3
    Расширение режима : CM (complete main)
    Параметр Endianness формата : Big
    Идентификатор кодека : A_AC3
    Продолжительность : 1 ч. 39 м.
    Вид битрейта : Постоянный
    Битрейт : 448 Кбит/сек
    Каналы : 6 каналов
    Расположение каналов : Front: L C R, Side: L R, LFE
    Частота : 48, 0 КГц
    Метод сжатия : С потерями
    Размер потока : 320 Мбайт (3%)
    Заголовок : Blu-ray EUR
    Язык : Ukrainian
    Default : Нет
    Forced : Нет
    Аудио #3
    Идентификатор : 4
    Формат : DTS
    Формат/Информация : Digital Theater Systems
    Профиль формата : ES
    Режим : 16
    Параметр Endianness формата : Big
    Идентификатор кодека : A_DTS
    Продолжительность : 1 ч. 39 м.
    Вид битрейта : Постоянный
    Битрейт : 1509 Кбит/сек
    Каналы : 6 каналов
    Расположение каналов : Front: L C R, Side: L R, LFE
    Частота : 48, 0 КГц
    Битовая глубина : 24 бит
    Метод сжатия : С потерями
    Задержка видео : 11 мс.
    Размер потока : 1, 05 Гбайт (10%)
    Заголовок : DTS-ES 5.1 @ 1536 kbps
    Язык : English
    Default : Нет
    Forced : Нет
    Текст #1
    Идентификатор : 5
    Формат : UTF-8
    Идентификатор кодека : S_TEXT/UTF8
    Идентификатор кодека/Информация : UTF-8 Plain Text
    Заголовок : Forced, iTunes
    Язык : Russian
    Default : Да
    Forced : Нет
    Текст #2
    Идентификатор : 6
    Формат : UTF-8
    Идентификатор кодека : S_TEXT/UTF8
    Идентификатор кодека/Информация : UTF-8 Plain Text
    Заголовок : iTunes
    Язык : Russian
    Default : Нет
    Forced : Нет
    Текст #3
    Идентификатор : 7
    Формат : UTF-8
    Идентификатор кодека : S_TEXT/UTF8
    Идентификатор кодека/Информация : UTF-8 Plain Text
    Заголовок : iTunes
    Язык : Ukrainian
    Default : Нет
    Forced : Нет
    Текст #4
    Идентификатор : 8
    Формат : UTF-8
    Идентификатор кодека : S_TEXT/UTF8
    Идентификатор кодека/Информация : UTF-8 Plain Text
    Язык : English
    Default : Нет
    Forced : Нет
    Текст #5
    Идентификатор : 9
    Формат : UTF-8
    Идентификатор кодека : S_TEXT/UTF8
    Идентификатор кодека/Информация : UTF-8 Plain Text
    Заголовок : SDH
    Язык : English
    Default : Нет
    Forced : Нет
    Меню
    00: 00: 00.000 : en: 00: 00: 00.000
    00: 02: 30.025 : en: 00: 02: 30.025
    00: 07: 22.609 : en: 00: 07: 22.609
    00: 11: 00.159 : en: 00: 11: 00.159
    00: 14: 59.524 : en: 00: 14: 59.524
    00: 17: 57.785 : en: 00: 17: 57.785
    00: 22: 03.322 : en: 00: 22: 03.322
    00: 24: 44.483 : en: 00: 24: 44.483
    00: 27: 49.877 : en: 00: 27: 49.877
    00: 30: 19.776 : en: 00: 30: 19.776
    00: 34: 56.011 : en: 00: 34: 56.011
    00: 38: 16.377 : en: 00: 38: 16.377
    00: 43: 10.087 : en: 00: 43: 10.087
    00: 48: 16.060 : en: 00: 48: 16.060
    00: 51: 35.301 : en: 00: 51: 35.301
    00: 54: 27.055 : en: 00: 54: 27.055
    00: 57: 18.101 : en: 00: 57: 18.101
    01: 00: 27.833 : en: 01: 00: 27.833
    01: 04: 34.913 : en: 01: 04: 34.913
    01: 08: 04.497 : en: 01: 08: 04.497
    01: 12: 08.282 : en: 01: 12: 08.282
    01: 15: 09.964 : en: 01: 15: 09.964
    01: 19: 10.162 : en: 01: 19: 10.162
    01: 22: 16.515 : en: 01: 22: 16.515
    01: 24: 49.543 : en: 01: 24: 49.543
    01: 27: 01.341 : en: 01: 27: 01.341
    01: 30: 49.569 : en: 01: 30: 49.569
    01: 33: 00.450 : en: 01: 33: 00.450
    Скриншоты


    Онлайн видео Фантастическая четверка


    Размер скачиваемого торрента: 10.63 GB (11415146982 Bytes)

    Фантастическая четверка/Fantastic Four (2015) BDRip 1080p от BlueBird | Лицензия
    загрузка...
    Рейтинг →
     (голосов: 1, оценка 4/5, голосовать можно 1 раз )

    Другие торренты по теме:

  • OST - Fantastic Four Soundtrack Фантастическая четверка - Вторжение серебряного серфера (2005, 2007) MP3
  • Фантастическая четверка 2: Вторжение Серебряного Серфера / 4: Rise of the Silver Surfer (2007) HDRip от Scarabey | D
  • Фантастическая четверка / Fantastic Four (2005) HDRip от Scarabey | D
  • Фантастическая четверка / Fantastic Four (2005) НDRip от Scarabey скачать через торрент бесплатно
  • Фантастическая четверка: Вторжение Серебряного серфера / 4: Rise of the Silver (2007) BDRip 720p от Leonardo and Scarabey
  • Фантастическая четверка / Fantastic Four (2005) BDRip 720p от Leonardo and Scarabey
  • Фантастическая четверка (2015) HDRip
  • Фантастическая четверка / Fantastic Four (2015) TS *PROPER*


    • Комментарии (0):

      Информация

      Информация

        Посетители, находящиеся в группе Гости, не могут оставлять комментарии в данной новости.

        ↓ Меню



        ↓ Опрос

        А Вы добавили сайт в закладки?
        Да
        Не


        Top 10 за месяц (Фильмы)