.
Авторизация | Регистрация
Хочешь лучшие торренты? Добавь свой email!
Добавить




Любовь / Love (2015) BDRip 720p | P торрент скачать бесплатно

Опубликовал: Админ | Дата: 3-12-2015, 05:00 | Просмотров: 76



Детально о кино
Русское название: Любовь
Русское название в мировом прокате: Love
Создали в: 2015
Категория жанра: драма, мелодрама, эротика
Главный режиссер: Гаспар Ноэ

Актеры
Аоми Муйок, Карл Глусман, Клара Кристин, Ugo Fox, Хуан Сааведра, Aaron Pages, Isabelle Nicou, Бенуа ДебиЮ, Венсан Мараваль, Дебора Реви

Сюжет фильма
Любовь вне добра и зла. Любовь — это генетическая потребность. Это дар и проклятие. Любовь — это болезнь, наркотик. Это потеря и обретение себя. Любовь — это самое прекрасное и самое ужасное в нашей жизни. Любовь — это переплетение душ и соединение тел. Любовь — это возбуждающая сексуальная мелодрама о парне, девушке и еще одной девушке.


Снималось в: Франция, Бельгия/ Les Cinemas de la Zone, Rectangle Productions, RT Features, Scope Pictures, Wild Bunch
Время просмотра: 02: 09: 23
Тип перевода: Профессиональное (многоголосное) официальное
Внимание: зрителям, достигшим18 лет.
Файл
Тип видео: MKV
Качество фильма: BDRip 720p
Информация о видео: MPEG-4 AVC, 8240 kb/s, 1280x536
Информация о звуке: Russian: AC3, 384 kb/s (2 ch)
MI

Format : Matroska
Format version : Version 2
File size : 7.79 GiB
Duration : 2h 9mn
Overall bit rate : 8 622 Kbps
Encoded date : UTC 2015-12-02 13: 50: 41
Writing application : mkvmerge v7.8.0 (;River Man;) 32bit built on Apr 3 2015 12: 11: 22
Writing library : libebml v1.3.1 + libmatroska v1.4.2
Video
ID : 1
Format : AVC
Format/Info : Advanced Video Codec
Format profile : High@L4.1
Format settings, CABAC : Yes
Format settings, ReFrames : 8 frames
Codec ID : V_MPEG4/ISO/AVC
Duration : 2h 9mn
Bit rate : 8 240 Kbps
Width : 1 280 pixels
Height : 536 pixels
Display aspect ratio : 2.40: 1
Frame rate mode : Constant
Frame rate : 25.000 fps
Color space : YUV
Chroma subsampling : 4: 2: 0
Bit depth : 8 bits
Scan type : Progressive
Bits/(Pixel*Frame) : 0.480
Stream size : 7.29 GiB (94%)
Writing library : x264 core 142 r2431 ac76440
Encoding settings : cabac=1/ref=8/deblock=1: -3: -3/analyse=0x3: 0x133/me=umh/subme=11/psy=1/psy_rd=1.00: 1.00/mixed_ref=1/me_range=48/chroma_me=1/trellis=2/8x8dct=1/cqm=0/deadzone=21, 11/fast_pskip=1/chroma_qp_offset=-4/threads=16/lookahead_threads=2/sliced_threads=0/nr=0/decimate=1/interlaced=0/bluray_compat=0/constrained_intra=0/bframes=8/b_pyramid=2/b_adapt=2/b_bias=0/direct=3/weightb=0/open_gop=0/weightp=2/keyint=250/keyint_min=25/scenecut=40/intra_refresh=0/rc_lookahead=150/rc=2pass/mbtree=0/bitrate=8240/ratetol=1.0/qcomp=0.60/qpmin=0/qpmax=69/qpstep=4/cplxblur=20.0/qblur=0.5/vbv_maxrate=62500/vbv_bufsize=78125/nal_hrd=none/filler=0/ip_ratio=1.20/pb_ratio=1.30/aq=2: 0.68
Language : English
Default : Yes
Forced : No
Color range : Limited
Matrix coefficients : BT.709
Audio
ID : 2
Format : AC-3
Format/Info : Audio Coding 3
Mode extension : CM (complete main)
Format settings, Endianness : Big
Codec ID : A_AC3
Duration : 2h 9mn
Bit rate mode : Constant
Bit rate : 384 Kbps
Channel(s) : 2 channels
Channel positions : Front: L R
Sampling rate : 48.0 KHz
Bit depth : 16 bits
Compression mode : Lossy
Stream size : 355 MiB (4%)
Language : Russian
Default : Yes
Forced : No
Скриншоты





Онлайн видео Любовь


Размер скачиваемого торрента: 7.79 GB (8366203019 Bytes)

Любовь/Love (2015) BDRip 720p | P
загрузка...
Рейтинг →
 (голосов: 1, оценка 3/5, голосовать можно 1 раз )

Другие торренты по теме:

  • Любовь, любовь, любовь / Love Love Love / 1989 / ПМ / DVDRip
  • Реальная любовь / Love Actually (2003) DVD9, DVD5 от Youtracker | D | Лицензия
  • Многоликая любовь / Love Has Many Faces (1965) DVDRip-AVC от Тorrent-Хzona
  • Реальная любовь / Love Actually (2003) BDRip 720p
  • Все, что нужно - любовь / Love Is All You Need (2011) DVDRip | Sub
  • Любовь / Love (2015) WEBRip 1080p | L | Тизер
  • Любовь / Love (2015) WEBRip | L1
  • Любовь / Love / 2015 / ЛО / WEBRip


    • Комментарии (0):

      Информация

      Информация

        Посетители, находящиеся в группе Гости, не могут оставлять комментарии в данной новости.

        ↓ Меню



        ↓ Опрос

        А Вы добавили сайт в закладки?
        Да
        Не


        Top 10 за месяц (Фильмы)