.
Авторизация | Регистрация
Хочешь лучшие торренты? Добавь свой email!
Добавить
» » Черные ступни / Czarne stopy (1987) DVDRip | D торрент скачать бесплатно




    Черные ступни / Czarne stopy (1987) DVDRip | D торрент скачать бесплатно

    Опубликовал: Админ | Дата: 4-12-2015, 05:01 | Просмотров: 62



    Детально о кино
    Русское название: Черные ступни
    Русское название в мировом прокате: Czarne stopy/Blackfoots
    Создали в: 1987
    Категория жанра: семейный, приключения
    Главный режиссер: Вальдемар Подгорский

    Актеры
    Марчин Ковальчук, Саша Дебжинский, Бартоз Хайнц, Себастьян Иванов, Миколай Джанис, Славомир Краевский, Янус Полак, Войцех Малякат, Цезари Пазура, Петр Шейка

    Сюжет фильма

    Приключения мальчишек в летнем лагере харцеров. Находясь там ребята научатся ценить дружбу, смогут проявить свои лучшие качества, познавая окружающий мир, помогая взрослым, защищая природу.
    Союз Польских Харцеров (польск. Zwi?zek Harcerstwa Polskiego, ZHP) — польская национальная скаутская/пионерская организация, с перерывами действующая с 1918 года по настоящее время. Союз состоит из отрядов зухов (zuch — смельчак) — детей 8—11 лет, младших харцеров (12—14) и старших харцеров (до 16 лет).
    Дополнительная информация:
    В фильме две дорожки - оригинальная польская, и советский дубляж (киностудии им. Горького). К сожалению, в советской версии вырезано около 10 минут в разных местах фильма, поэтому, в тех местах, которые в советском варианте отсутствуют, вставлен оригинальный польский звук и переведены они субтитрами. Большое спасибоLukas за добавление русской дорожки, а также всем тем, благодаря кому польская и советская версии фильма появились в интернете.

    Создали в: Польша/Zesp?l Filmowy Profil
    Время просмотра: 01: 37: 58
    Перевод текста: дублированныйкиностудия им. Горького
    Файл
    Качество фильма: DVDRip
    Тип видео: AVI
    Информация о видео: XviD, 720x540 (4: 3), 25.000 fps, 2480 kbps
    Информация о звуке #1: русский, MP3 2.0, 48 kHz, 192 kbps
    Информация о звуке #2: польский, AC3 2.0, 48 kHz, 192 kbps
    Субтитры: русские внешние (на непереведенные места)
    MediaInfo
    Общее
    Полное имя : Czarne.stopy.1987.DVDRip.avi
    Формат : AVI
    Формат/Информация : Audio Video Interleave
    Размер файла : 1, 97 Гбайт
    Продолжительность : 1 ч. 37 м.
    Общий поток : 2879 Кбит/сек
    Название фильма : Black Feet
    Программа кодирования : VirtualDubMod 1.5.10.2 (build 2540/release)
    Библиотека кодирования : VirtualDubMod build 2540/release
    Формат оригинала/Имя : CZARNE_STOPY
    Видео
    Идентификатор : 0
    Формат : MPEG-4 Visual
    Профиль формата : Advanced Simple@L5
    Параметр BVOP формата : 2
    Параметр QPel формата : Нет
    Параметр GMC формата : Без точки перехода
    Параметр матрицы формата : Default (H.263)
    Режим смешивания : Сжатый битовый поток
    Идентификатор кодека : XVID
    Идентификатор кодека/Подсказка : XviD
    Продолжительность : 1 ч. 37 м.
    Битрейт : 2480 Кбит/сек
    Ширина : 720 пикселей
    Высота : 540 пикселей
    Соотношение сторон : 4: 3
    Частота кадров : 25, 000 кадров/сек
    Цветовое пространство : YUV
    Субдискретизация насыщенности : 4: 2: 0
    Битовая глубина : 8 бит
    Тип развёртки : Прогрессивная
    Метод сжатия : С потерями
    Бит/(Пиксели*Кадры) : 0.255
    Размер потока : 1, 70 Гбайт (86%)
    Библиотека кодирования : XviD 1.2.1 (UTC 2008-12-04)
    Аудио #1
    Идентификатор : 1
    Формат : MPEG Audio
    Версия формата : Version 1
    Профиль формата : Layer 3
    Режим : Joint stereo
    Расширение режима : MS Stereo
    Идентификатор кодека : 55
    Идентификатор кодека/Подсказка : MP3
    Продолжительность : 1 ч. 37 м.
    Вид битрейта : Постоянный
    Битрейт : 192 Кбит/сек
    Каналы : 2 канала
    Частота : 48, 0 КГц
    Метод сжатия : С потерями
    Размер потока : 134 Мбайт (7%)
    Выравнивание : Разделение по промежуткам
    Продолжительность промежутка : 40 мс. (1, 00 видеокадр)
    Время предзагрузки промежутка : 500 мс.
    Аудио #2
    Идентификатор : 2
    Формат : AC-3
    Формат/Информация : Audio Coding 3
    Профиль формата : Dolby Digital
    Расширение режима : CM (complete main)
    Параметр Endianness формата : Big
    Идентификатор кодека : 2000
    Продолжительность : 1 ч. 37 м.
    Вид битрейта : Постоянный
    Битрейт : 192 Кбит/сек
    Каналы : 2 канала
    Расположение каналов : Front: L R
    Частота : 48, 0 КГц
    Метод сжатия : С потерями
    Размер потока : 135 Мбайт (7%)
    Выравнивание : Разделение по промежуткам
    Продолжительность промежутка : 40 мс. (1, 00 видеокадр)
    Время предзагрузки промежутка : 500 мс.
    Скриншоты

    Залил: makkaronni

    Онлайн видео Черные ступни


    Размер скачиваемого торрента: 1.97 GB (2115416788 Bytes)

    Черные ступни/Czarne stopy (1987) DVDRip | D
    загрузка...
    Рейтинг →
     (голосов: 1, оценка 4/5, голосовать можно 1 раз )

    Другие торренты по теме:

  • Джастин Аллен - Черные псы пустыни (2009) FB2, RTF, TXT
  • Игорь Саруханов - Черные, белые полосы (2012) FLAC
  • Игорь Саруханов - Черные, белые полосы (2012) MP3
  • Черные кошки в бамбуковых зарослях / Yabu no naka no kuroneko (1968) ВDRip-AVC от Тorrent-Хzona
  • Шерлок Холмс и черные человечки (2012) WEBRip скачать через торрент бесплатно
  • Черные кошки (2013) WEB-DL 1080p от Nikolspup
  • Черные кошки (2013) WEB-DL 720p от Nikolspup
  • Черные кошки (2013) SATRip от GeneralFilm


    • Комментарии (0):

      Информация

      Информация

        Посетители, находящиеся в группе Гости, не могут оставлять комментарии в данной новости.

        ↓ Меню



        ↓ Опрос

        А Вы добавили сайт в закладки?
        Да
        Не


        Top 10 за месяц (Фильмы)