.
Авторизация | Регистрация
Хочешь лучшие торренты? Добавь свой email!
Добавить
» » Робот по имени Чаппи / Chappie (2015) HDRip от NNM-CLUB | Гаврилов торрент скачать бесплатно




    Робот по имени Чаппи / Chappie (2015) HDRip от NNM-CLUB | Гаврилов торрент скачать бесплатно

    Опубликовал: Админ | Дата: 5-12-2015, 05:01 | Просмотров: 85


    Робот по имени Чаппи/Chappie (2015) HDRip

    Создали в: США, Мексика
    Категория жанра: Боевик, Фантастика
    Главный режиссер: Нил Бломкамп
    Актеры: Шарлто Копли, Дев Патель, Ниндзя, Йоланди Фиссер, Хосе Пабло Кантильо, Хью Джекман, Сигурни Уивер, Брэндон Оре, Джонни Селема, Андерсон Купер

    Описание фильма

    Чаппи - вундеркинд. Как и любой другой ребенок, он попадает под влияние своего окружения, и только его сердце и душа помогут ему найти свой путь. Но есть одна вещь, которая делает Чаппи непохожим на всех остальных: он – первый робот, способный чувствовать и думать.

    Рейтинг MPAA: R - Детям до 17 лет обязательно присутствие родителей
    Дата мировой премьеры: 4 марта 2015
    Дата российской премьеры: 5 марта 2015, WDSSPR
    Дата выхода Blu-Ray релиза: 11 июня 2015, CP Дистрибуция
    Дата выхода DVD релиза: 11 июня 2015, CP Дистрибуция
    Релиз подготовил: FAGOT100(NNM-CLUB)
    Время просмотра: 02: 00: 19
    Качество фильма видео: HDRip
    Перевод текста: Авторский (одноголосый, закадровый) А.Гаврилов
    Субтитры: Отсутствуют
    Информация о видео: MPEG4, XviD, 720x304 (2.35: 1), 23.976 fps, 1 283 Kbps (0.245 bit/pixel)
    Информация о звуке: AC-3, 48.0 KHz, 6 ch, 448 Kbps, CBR
    Mediainfo:

    Формат : AVI
    Формат/Информация : Audio Video Interleave
    Размер файла : 1, 46 Гбайт
    Продолжительность : 2 ч. 0 м.
    Общий поток : 1741 Кбит/сек
    Программа кодирования : VirtualDubMod 1.5.10.3 | www.virtualdub-fr.org || (build 2550/release)
    Библиотека кодирования : VirtualDubMod build 2550/release
    Видео
    Идентификатор : 0
    Формат : MPEG-4 Visual
    Профиль формата : Advanced Simple@L5
    Параметр BVOP формата : 1
    Параметр QPel формата : Нет
    Параметр GMC формата : Без точки перехода
    Параметр матрицы формата : Выборочная
    Идентификатор кодека : XVID
    Идентификатор кодека/Подсказка : XviD
    Продолжительность : 2 ч. 0 м.
    Битрейт : 1283 Кбит/сек
    Ширина : 720 пикселей
    Высота : 304 пикселя
    Соотношение сторон : 2, 35: 1
    Частота кадров : 23, 976 кадра/сек
    Цветовое пространство : YUV
    Субдискретизация насыщенности : 4: 2: 0
    Битовая глубина : 8 бит
    Тип развёртки : Прогрессивная
    Метод сжатия : С потерями
    Бит/(Пиксели*Кадры) : 0.245
    Размер потока : 1, 08 Гбайт (74%)
    Библиотека кодирования : XviD 73
    Аудио
    Идентификатор : 1
    Формат : AC-3
    Формат/Информация : Audio Coding 3
    Расширение режима : CM (complete main)
    Параметр Endianness формата : Big
    Идентификатор кодека : 2000
    Продолжительность : 2 ч. 0 м.
    Вид битрейта : Постоянный
    Битрейт : 448 Кбит/сек
    Каналы : 6 каналов
    Расположение каналов : Front: L C R, Side: L R, LFE
    Частота : 48, 0 КГц
    Битовая глубина : 16 бит
    Метод сжатия : С потерями
    Размер потока : 386 Мбайт (26%)
    Выравнивание : Разделение по промежуткам
    Продолжительность промежутка : 42 мс. (1, 00 видеокадр)
    Время предзагрузки промежутка : 500 мс.

    Скриншоты:


    Онлайн видео Робот по имени Чаппи


    Размер скачиваемого торрента: 1.46 GB (1570877440 Bytes)

    Робот по имени Чаппи/Chappie (2015) HDRip от NNM-CLUB | Гаврилов
    загрузка...
    Рейтинг →
     (голосов: 1, оценка 5/5, голосовать можно 1 раз )

    Другие торренты по теме:

  • Робот по имени Чаппи / Chappie (2015) CAMRip
  • Робот по имени Чаппи / Chappie (2015) TS *PROPER*
  • Робот по имени Чаппи / Chappie (2015) TS
  • Робот по имени Чаппи / Chappie (2015) WEB-DL 720p | iTunes
  • Робот по имени Чаппи / Chappie (2015) WEB-DLRip от Scarabey | iTunes
  • Робот по имени Чаппи / Chappie (2015) WEB-DLRip-AVC | iTunes
  • Робот по имени Чаппи / Chappie (2015) HDRip | iTunes
  • Робот по имени Чаппи / Chappie (2015) BDRip 720p | iTunes


    • Комментарии (0):

      Информация

      Информация

        Посетители, находящиеся в группе Гости, не могут оставлять комментарии в данной новости.

        ↓ Меню



        ↓ Опрос

        А Вы добавили сайт в закладки?
        Да
        Не


        Top 10 за месяц (Фильмы)