.
Авторизация | Регистрация
Хочешь лучшие торренты? Добавь свой email!
Добавить




Метод (2015) WEB-DLRip от GeneralFilm торрент скачать бесплатно

Опубликовал: Админ | Дата: 7-12-2015, 05:01 | Просмотров: 91



Детально о кино
Русское название в мировом прокате: Метод
Создали в: 2015
Категория жанра: Психологический триллер
Главный режиссер: Юрий Быков

Актеры
Константин Хабенский, Паулина Андреева, Виталий Кищенко, Александр Цекало, Екатерина Дубакина, Александр Петров (II), Тимофей Трибунцев, Игорь Савочкин, Алексей Серебряков, Юрий Колокольников, Юрий Быков, Ян Цапник, Захар Кабанов, Наталья Унгард, Валентин Самохин, Сергей Беляев, Мария Бородина (II), Юлия Полынская, Олег Васильков, Яна Енжаева, Марина Правкина, Александра Лупашко, Марина Кондратьева (II), Сергей Романович, Александр Чередник, Владимир Яканин, Евгений Кулаков, Вера Панфилова, Николай Ширяев, Роман Смирнов (II), Виктор Цекало, Сергей Сосновский, Алексей Долгушин, Сергей Белов, Иван Добронравов, Арсений Перель, Александра Булычёва

Сюжет фильма
Родион Меглин — загадочный следователь, который с успехом разгадывает даже самые изощренные преступления. Каков его секретный метод, никто не знает. Молодая Есеня, попав к герою в стажеры, начинает понимать, что Родион — сам маньяк. Именно поэтому он с такой легкостью раскрывает разнообразные дела.
Снималось в: Россия, Кинкомпания Среда
Время просмотра: 13 x ~ 00: 52: 00
Перевод текста: Не требуется
Файл
Качество фильма: WEB-DLRip
Информация о видео: XviD, ~ 1400 Кбит/с, 720х400
Информация о звуке: AC3, 2 ch, 192 Кбит/с
МедиаИнфо
Общее
Полное имя : Method.2015.XviD.WEB-DLRip.by.GeneralFilm?1.seriya.avi
Формат : AVI
Формат/Информация : Audio Video Interleave
Размер файла : 553 Мбайт
Продолжительность : 47 м.
Общий поток : 1636 Кбит/сек
Программа кодирования : VirtualDubMod 1.5.10.3 | www.virtualdub-fr.org || (build 2550/release)
Библиотека кодирования : VirtualDubMod build 2550/release
Видео
Идентификатор : 0
Формат : MPEG-4 Visual
Профиль формата : Advanced Simple@L5
Параметр BVOP формата : 1
Параметр QPel формата : Нет
Параметр GMC формата : Без точки перехода
Параметр матрицы формата : Выборочная
Идентификатор кодека : XVID
Идентификатор кодека/Подсказка : XviD
Продолжительность : 47 м.
Битрейт : 1435 Кбит/сек
Ширина : 720 пикселей
Высота : 400 пикселей
Соотношение сторон : 16: 9
Частота кадров : 25, 000 кадров/сек
Цветовое пространство : YUV
Субдискретизация насыщенности : 4: 2: 0
Битовая глубина : 8 бит
Тип развёртки : Прогрессивная
Метод сжатия : С потерями
Бит/(Пиксели*Кадры) : 0.199
Размер потока : 485 Мбайт (88%)
Библиотека кодирования : XviD 73
Аудио
Идентификатор : 1
Формат : AC-3
Формат/Информация : Audio Coding 3
Расширение режима : CM (complete main)
Параметр Endianness формата : Big
Идентификатор кодека : 2000
Продолжительность : 47 м.
Вид битрейта : Постоянный
Битрейт : 192 Кбит/сек
Каналы : 2 канала
Расположение каналов : Front: L R
Частота : 48, 0 КГц
Метод сжатия : С потерями
Размер потока : 64, 9 Мбайт (12%)
Выравнивание : Разделение по промежуткам
Продолжительность промежутка : 40 мс. (1, 00 видеокадр)
Время предзагрузки промежутка : 500 мс.

Семпл
http://sendfile.su/1166315

Скриншоты



Релиз подготовил:
Исходник 1080р:
Залил: vsobbol
Размер скачиваемого торрента: 7.03 GB (7548602368 Bytes)

Метод (2015) WEB-DLRip от GeneralFilm
загрузка...
Рейтинг →
 (голосов: 1, оценка 3/5, голосовать можно 1 раз )

Другие торренты по теме:

  • Метод (2015) WEB-DLRip-AVC от ExKinoRay
  • Метод Фрейда (2013) WEB-DLRip 1080p


    • Комментарии (0):

      Информация

      Информация

        Посетители, находящиеся в группе Гости, не могут оставлять комментарии в данной новости.

        ↓ Меню



        ↓ Опрос

        А Вы добавили сайт в закладки?
        Да
        Не


        Top 10 за месяц (Фильмы)