.
Авторизация | Регистрация
» » Агенты А.Н.К.Л. / The Man from U.N.C.L.E. (2015) DVD9 | D, А | Custom скачать торрент бесплатно




    Агенты А.Н.К.Л. / The Man from U.N.C.L.E. (2015) DVD9 | D, А | Custom скачать торрент бесплатно

    Опубликовал: Админ | Дата: 7-12-2015, 05:01 | Просмотров: 148


    Герои высшего класса

    Создали в: 2015
    Создали в: США, Великобритания/Warner Bros. Pictures, Wigram Productions, Davis Entertainment, RatPac-Dune Entertainment
    Категория жанра: Боевик, комедия, приключения
    Главный режиссер: Гай Ричи
    Продюсеры: Стив Кларк-Холл, Джон Дэвис, Гай Ричи
    Актеры: Генри Кавилл, Арми Хаммер, Алисия Викандер, Элизабет Дебики, Хью Грант, Лука Кальвани, Сильвестр Грот, Джаред Харрис, Кристиан Беркель, Миша Кузнецов
    Описание фильма:
    Наполеон Соло — агент ЦРУ, на счету которого огромное количество успешно проведенных операций. Он считается одним из лучших секретных агентов во всем мире, и с ним может сравниться только один человек — самый молодой и перспективный агент КГБ, Илья Курякин. Их противостояние переросло в настоящую войну, в которой никто не собирается уступать. Однако обстоятельства складываются так, что непримиримые враги вынуждены стать напарниками. Это происходит после того как спецслужбы двух стран обнаруживают международную преступную организацию, которой удалось создать ядерную бомбу…
    Перевод текста: Профессиональный (полное дублирование) + Авторский (одноголосый, закадровый) Д. Есарев, А. Матвеев
    Субтитры: Английские, русские
    Дата мировой премьеры: 2 августа 2015
    Дата премьеры в России: 13 августа 2015, Каро-Премьер
    Дата выхода DVD релиза: 17 декабря 2015, CP Дистрибуция
    Время просмотра: 01: 56: 23
    Качество фильма видео: DVD9
    Информация о видео: MPEG-2, 720x480@853x480 (NTSC 16: 9), ~5600 Кбит/сек
    Информация о звуке 1: AC3 5.1, 384 Кбит/сек Английский - оригинал
    Информация о звуке 2: AC3 5.1, 384 Кбит/сек Английский - описательный
    Информация о звуке 3: AC3 5.1, 448 Кбит/сек Русский - дублированный
    Информация о звуке 4: AC3 5.1, 448 Кбит/сек Русский - одноголосый закадровый (Д. Есарев)
    Информация о звуке 5: AC3 5.1, 448 Кбит/сек Русский - одноголосый закадровый (А. Матвеев)
    Доп. материалы: Герои высшего класса, Ролики
    DVDInfo:
    Title: The Man from U.N.C.L.E. (2015) DVD9 NTSC
    Size: 6.88 Gb ( 7 209 042, 00 KBytes ) - DVD-9
    Enabled regions: 1, 2, 3, 4, 5, 6, 7, 8
    VTS_01 :
    Play Length: 01: 56: 23+00: 00: 00+00: 00: 01+00: 07: 13
    Video: NTSC 16: 9 (720x480) VBR, Auto Letterboxed
    Audio:
    English (Dolby AC3, 6 ch)
    English (Dolby AC3, 6 ch)
    Russian (Dolby AC3, 6 ch)
    Russian (Dolby AC3, 6 ch)
    Russian (Dolby AC3, 6 ch)
    Subtitles:
    English
    Russian
    Russian
    VTS_02 :
    Play Length: 00: 00: 11
    Video: NTSC 16: 9 (720x480) VBR, Auto Letterboxed
    Audio:
    Not specified (Dolby AC3, 6 ch)
    Subtitles:
    Not specified
    VTS_03 :
    Play Length: 00: 02: 34+00: 06: 42
    Video: NTSC 16: 9 (720x480) VBR, Auto Letterboxed
    Audio:
    English (Dolby AC3, 2 ch)
    English (Dolby AC3, 6 ch)
    Subtitles:
    Not specified
    VTS_04 :
    Play Length: 00: 01: 03
    Video: NTSC 4: 3 (720x480) VBR
    Audio:
    English (Dolby AC3, 2 ch)
    Subtitles:
    Not specified
    * Menus Information *
    VIDEO_TS Menu
    Video:
    NTSC 16: 9 (720x480) VBR
    Auto Letterboxed
    Language Unit :
    Title Menu
    VTS_01 Menu
    Video:
    NTSC 16: 9 (720x480) VBR
    Auto PanScan
    Audio:
    Not specified (Dolby AC3, 2 ch)
    English Language Unit :
    Root Menu
    VTS_02 Menu
    Video:
    NTSC 4: 3 (720x480) VBR
    Auto PanScan, Auto Letterboxed
    Language Unit :
    Root Menu
    VTS_03 Menu
    Video:
    NTSC 4: 3 (720x480) VBR
    Auto PanScan, Auto Letterboxed
    Language Unit :
    Root Menu
    VTS_04 Menu
    Video:
    NTSC 4: 3 (720x480) VBR
    Auto PanScan, Auto Letterboxed
    Language Unit :
    Root Menu
    MediaInfo:
    Общее
    Полное имя : F: ВидеоThe Man from U.N.C.L.E. (2015) DVD9 NTSCVIDEO_TSVTS_01_1.VOB
    Формат : MPEG-PS
    Размер файла : 1024 Мбайт
    Продолжительность : 18 м.
    Режим общего битрейта : Переменный
    Общий поток : 7885 Кбит/сек
    Видео
    Идентификатор : 224 (0xE0)
    Формат : MPEG Video
    Версия формата : Version 2
    Профиль формата : Main@Main
    Параметр BVOP формата : Да
    Параметр матрицы формата : Выборочная
    Параметр GOP формата : Variable
    Продолжительность : 18 м.
    Вид битрейта : Переменный
    Битрейт : 5616 Кбит/сек
    Максимальный битрейт : 7500 Кбит/сек
    Ширина : 720 пикселей
    Высота : 480 пикселей
    Соотношение сторон : 16: 9
    Частота кадров : 23, 976 кадра/сек
    Стандарт вещания : NTSC
    Цветовое пространство : YUV
    Субдискретизация насыщенности : 4: 2: 0
    Битовая глубина : 8 бит
    Тип развёртки : Прогрессивная
    Порядок развёртки : 2: 3 Pulldown
    Метод сжатия : С потерями
    Бит/(Пиксели*Кадры) : 0.678
    Временной код первого кадра : 00: 59: 58;00
    Оригинал временного кода : Group of pictures t_head
    GOP, открыто/закрыто : Закрыто
    Размер потока : 729 Мбайт (71%)
    Аудио #1
    Идентификатор : 189 (0xBD)-128 (0x80)
    Формат : AC-3
    Формат/Информация : Audio Coding 3
    Расширение режима : CM (complete main)
    Параметр Endianness формата : Big
    Режим смешивания : DVD-Video
    Продолжительность : 18 м.
    Вид битрейта : Постоянный
    Битрейт : 384 Кбит/сек
    Каналы : 6 каналов
    Расположение каналов : Front: L C R, Side: L R, LFE
    Частота : 48, 0 КГц
    Битовая глубина : 16 бит
    Метод сжатия : С потерями
    Размер потока : 49, 9 Мбайт (5%)
    Аудио #2
    Идентификатор : 189 (0xBD)-129 (0x81)
    Формат : AC-3
    Формат/Информация : Audio Coding 3
    Расширение режима : CM (complete main)
    Параметр Endianness формата : Big
    Режим смешивания : DVD-Video
    Продолжительность : 18 м.
    Вид битрейта : Постоянный
    Битрейт : 384 Кбит/сек
    Каналы : 6 каналов
    Расположение каналов : Front: L C R, Side: L R, LFE
    Частота : 48, 0 КГц
    Битовая глубина : 16 бит
    Метод сжатия : С потерями
    Размер потока : 49, 9 Мбайт (5%)
    Аудио #3
    Идентификатор : 189 (0xBD)-130 (0x82)
    Формат : AC-3
    Формат/Информация : Audio Coding 3
    Расширение режима : CM (complete main)
    Параметр Endianness формата : Big
    Режим смешивания : DVD-Video
    Продолжительность : 18 м.
    Вид битрейта : Постоянный
    Битрейт : 448 Кбит/сек
    Каналы : 6 каналов
    Расположение каналов : Front: L C R, Side: L R, LFE
    Частота : 48, 0 КГц
    Битовая глубина : 16 бит
    Метод сжатия : С потерями
    Размер потока : 58, 2 Мбайт (6%)
    Аудио #4
    Идентификатор : 189 (0xBD)-131 (0x83)
    Формат : AC-3
    Формат/Информация : Audio Coding 3
    Расширение режима : CM (complete main)
    Параметр Endianness формата : Big
    Режим смешивания : DVD-Video
    Продолжительность : 18 м.
    Вид битрейта : Постоянный
    Битрейт : 448 Кбит/сек
    Каналы : 6 каналов
    Расположение каналов : Front: L C R, Side: L R, LFE
    Частота : 48, 0 КГц
    Битовая глубина : 16 бит
    Метод сжатия : С потерями
    Размер потока : 58, 2 Мбайт (6%)
    Аудио #5
    Идентификатор : 189 (0xBD)-132 (0x84)
    Формат : AC-3
    Формат/Информация : Audio Coding 3
    Расширение режима : CM (complete main)
    Параметр Endianness формата : Big
    Режим смешивания : DVD-Video
    Продолжительность : 18 м.
    Вид битрейта : Постоянный
    Битрейт : 448 Кбит/сек
    Каналы : 6 каналов
    Расположение каналов : Front: L C R, Side: L R, LFE
    Частота : 48, 0 КГц
    Битовая глубина : 16 бит
    Метод сжатия : С потерями
    Размер потока : 58, 2 Мбайт (6%)
    Текст #1
    Идентификатор : 189 (0xBD)-32 (0x20)
    Формат : RLE
    Формат/Информация : Run-length encoding
    Режим смешивания : DVD-Video
    Текст #2
    Идентификатор : 189 (0xBD)-33 (0x21)
    Формат : RLE
    Формат/Информация : Run-length encoding
    Режим смешивания : DVD-Video
    Меню
    Доп. информация:
    Исходником послужил лицензионный DVD9 из-за рубежа. Французскую звуковую дорожку заменил на русский дубляж. Испанскую звуковую дорогу заменил на Есарева. Ради звуковой дорожки Матвеева в DVD-lab PRO 2 переделал меню выбора звука и субтитров.
    Предупреждающие надписи скрыл.
    Доп. материалы переведены русскими субтитрами.
    Использовались программы: MKVExtractGUI2, DVD ReMake Pro, PgcDemux, Adobe PhotoShop, MuxMan, Subtitle Workshop, MaestroSBT, DVDSubEdit.
    Скриншоты меню:

    Скриншоты:

    Залил: Саша 1992

    Онлайн видео Агенты А.Н.К.Л.


    Размер скачиваемого торрента: 6.88 GB (7382059008 Bytes)

    Агенты А.Н.К.Л./The Man from U.N.C.L.E. (2015) DVD9 | D, А | Custom
    загрузка...
    Рейтинг →
     (голосов: 1, оценка 5/5, голосовать можно 1 раз )

    Другие торренты по теме:

  • Агенты А.Н.К.Л. / The Man from U.N.C.L.E. (2015) WEBRip 1080p | Трейлер скачать торрент бесплатно
  • Агенты А.Н.К.Л. / The Man from U.N.C.L.E. (2015) WEB-DL 720p | Матвеев скачать торрент бесплатно
  • Агенты А.Н.К.Л. / The Man from U.N.C.L.E. (2015) WEB-DL 720р от Scarabey | Чистый звук, А скачать торрент бесплатно
  • Агенты А.Н.К.Л. / The Man from U.N.C.L.E. (2015) WEB-DLRip от Scarabey | Чистый звук скачать торрент бесплатно
  • Агенты А.Н.К.Л. / The Man from U.N.C.L.E. / 2015 / АП (Матвеев) / WEB-DL (1080p) скачать торрент бесплатно
  • Агенты А.Н.К.Л. / The Man from U.N.C.L.E. (2015) BDRip 720p от BlueBird | D, A | iTunes скачать торрент бесплатно
  • Агенты А.Н.К.Л. / The Man from U.N.C.L.E. / 2015 / ДБ / BDRip (720p) скачать торрент бесплатно
  • Агенты А.Н.К.Л. / The Man from U.N.C.L.E. / 2015 / ДБ, АП (Есарев), СТ / BDRip (720p) скачать торрент бесплатно


    • Комментарии (0):

      Информация

      Информация

        Посетители, находящиеся в группе Гости, не могут оставлять комментарии в данной новости.

        ↓ Меню



        ↓ Опрос

        А Вы добавили сайт в закладки?
        Да
        Не


        Top 10 за неделю (Фильмы)