.
Авторизация | Регистрация
» » Человек-муравей / Ant-Man (2015) DVD5 скачать торрент бесплатно




    Человек-муравей / Ant-Man (2015) DVD5 скачать торрент бесплатно

    Опубликовал: Админ | Дата: 8-12-2015, 09:55 | Просмотров: 242


    Рожденный ползать взлетит до небес

    Создали в: 2015
    Создали в: США/Marvel Studios Inc.
    Категория жанра: Фантастика, боевик, комедия, приключения
    Главный режиссер: Пейтон Рид
    Продюсеры: Кевин Файги, Виктория Алонсо, Луис Д’Эспозито
    Актеры: Пол Радд, Майкл Дуглас, Эванджелин Лилли, Кори Столл, Майкл Пенья, Бобби Каннавале, Ти-Ай, Давид Дастмалчян, Эбби Райдер Фортсон, Джуди Грир
    Описание фильма:
    Вооружившись удивительной способностью уменьшаться в размере, но обладать при этом большой силой, мошенник Скотт Лэнг должен стать героем и помочь своему наставнику, доктору Хэнку Пиму, сохранить в тайне существование костюма Человека-муравья от угроз нового поколения.
    Перевод текста: Дублированный
    Субтитры: Английские, русские
    Дата мировой премьеры: 29 июня 2015
    Дата премьеры в России: 16 июля 2015, WDSSPR
    Дата выхода DVD релиза: 17 ноября 2015, Уолт Дисней Компани СНГ
    Время просмотра: 01: 56: 59
    Качество фильма видео: DVD5
    Информация о видео: MPEG-2, 720x480@853x480 (NTSC 16: 9), ~4300 Кбит/сек
    Информация о звуке 1: AC3 5.1, 448 Кбит/сек Английский - оригинал
    Информация о звуке 2: AC3 5.1, 448 Кбит/сек Русский - дублированный
    DVDInfo:
    Title: Ant-Man (2015) DVD5 NTSC
    Size: 4.37 Gb ( 4 582 424, 00 KBytes ) - DVD-5
    Enabled regions: 1, 2, 3, 4, 5, 6, 7, 8
    VTS_01 :
    Play Length: 00: 00: 00
    Video: NTSC 16: 9 (720x480) VBR, Auto Letterboxed
    VTS_02 :
    Play Length: 01: 56: 59
    Video: NTSC 16: 9 (720x480) VBR, Auto Letterboxed
    Audio:
    English (Dolby AC3, 6 ch)
    Russian (Dolby AC3, 2 ch)
    Subtitles:
    English
    Russian
    Russian
    * Menus Information *
    VIDEO_TS Menu
    Video:
    NTSC 16: 9 (720x480) VBR
    Auto PanScan
    Audio:
    Not specified (Dolby AC3, 2 ch)
    English Language Unit :
    Title Menu
    VTS_01 Menu
    Video:
    NTSC 16: 9 (720x480) VBR
    Auto PanScan
    Audio:
    Not specified (Dolby AC3, 6 ch)
    English Language Unit :
    Root Menu
    Angle menu
    VTS_02 Menu
    Video:
    NTSC 4: 3 (720x480) VBR
    Auto PanScan, Auto Letterboxed
    English Language Unit :
    Root Menu
    Angle menu
    MediaInfo:
    Общее
    Полное имя : G: ВидеоAnt-Man (2015) DVD5 NTSCVIDEO_TSVTS_02_4.VOB
    Формат : MPEG-PS
    Размер файла : 1024 Мбайт
    Продолжительность : 26 м.
    Режим общего битрейта : Переменный
    Общий поток : 5321 Кбит/сек
    Видео
    Идентификатор : 224 (0xE0)
    Формат : MPEG Video
    Версия формата : Version 2
    Профиль формата : Main@Main
    Параметр BVOP формата : Да
    Параметр матрицы формата : Выборочная
    Параметр GOP формата : Variable
    Продолжительность : 26 м.
    Вид битрейта : Переменный
    Битрейт : 4319 Кбит/сек
    Максимальный битрейт : 8093 Кбит/сек
    Ширина : 720 пикселей
    Высота : 480 пикселей
    Соотношение сторон : 16: 9
    Частота кадров : 23, 976 кадра/сек
    Стандарт вещания : NTSC
    Цветовое пространство : YUV
    Субдискретизация насыщенности : 4: 2: 0
    Битовая глубина : 8 бит
    Тип развёртки : Прогрессивная
    Порядок развёртки : 2: 3 Pulldown
    Метод сжатия : С потерями
    Бит/(Пиксели*Кадры) : 0.521
    Временной код первого кадра : 01: 22: 43: 14
    Оригинал временного кода : Group of pictures t_head
    GOP, открыто/закрыто : Открыто
    Размер потока : 831 Мбайт (81%)
    Аудио #1
    Идентификатор : 189 (0xBD)-128 (0x80)
    Формат : AC-3
    Формат/Информация : Audio Coding 3
    Расширение режима : CM (complete main)
    Параметр Endianness формата : Big
    Режим смешивания : DVD-Video
    Продолжительность : 26 м.
    Вид битрейта : Постоянный
    Битрейт : 448 Кбит/сек
    Каналы : 6 каналов
    Расположение каналов : Front: L C R, Side: L R, LFE
    Частота : 48, 0 КГц
    Битовая глубина : 16 бит
    Метод сжатия : С потерями
    Задержка видео : -401 мс.
    Размер потока : 86, 2 Мбайт (8%)
    Аудио #2
    Идентификатор : 189 (0xBD)-130 (0x82)
    Формат : AC-3
    Формат/Информация : Audio Coding 3
    Расширение режима : CM (complete main)
    Параметр Endianness формата : Big
    Режим смешивания : DVD-Video
    Продолжительность : 26 м.
    Вид битрейта : Постоянный
    Битрейт : 448 Кбит/сек
    Каналы : 6 каналов
    Расположение каналов : Front: L C R, Side: L R, LFE
    Частота : 48, 0 КГц
    Битовая глубина : 16 бит
    Метод сжатия : С потерями
    Задержка видео : -401 мс.
    Размер потока : 86, 2 Мбайт (8%)
    Текст #1
    Идентификатор : 189 (0xBD)-32 (0x20)
    Формат : RLE
    Формат/Информация : Run-length encoding
    Режим смешивания : DVD-Video
    Продолжительность : 26 м.
    Задержка видео : 1 с. 502 мс.
    Текст #2
    Идентификатор : 189 (0xBD)-33 (0x21)
    Формат : RLE
    Формат/Информация : Run-length encoding
    Режим смешивания : DVD-Video
    Продолжительность : 26 м.
    Задержка видео : 1 с. 502 мс.
    Меню
    Доп. информация:
    Исходник: Человек-муравей/Ant-Man (2015) DVD9 | Custom
    Удалены: доп. материалы, звуковая дорожка AC3 2.0
    Команды диска переписаны заново, оставлено два VTS.
    Видео сжато на 27, 4%
    Меню: статичное, недействующие кнопки затерты и закрыты.
    Обработка и сжатие: DVD ReMake Pro + DVD Rebuilder + CCE SP2 7 проходов + Работа с меню (Adobe PhotoShop и MuxMan).
    Скриншоты меню:


    Скриншоты:

    Залил: Саша 1992

    Онлайн видео Человек-муравей


    Размер скачиваемого торрента: 4.37 GB (4692402176 Bytes)

    Человек-муравей/Ant-Man (2015) DVD5
    загрузка...
    Рейтинг →
     (голосов: 1, оценка 4/5, голосовать можно 1 раз )

    Другие торренты по теме:

  • Человек-муравей / Ant-Man (2015) WEBRip | Звук c CAMRip скачать торрент бесплатно
  • Человек-муравей / Ant-Man (2015) WEBRip | Чистый звук скачать торрент бесплатно
  • Человек-муравей / Ant-Man (2015) WEB-DL 720p | iTunes скачать торрент бесплатно
  • Человек-муравей / Ant-Man (2015) HDRip | iTunes скачать торрент бесплатно
  • Человек-муравей / Ant-Man (2015) BDRip 720p | iTunes скачать торрент бесплатно
  • Человек-муравей / Ant-Man (2015) BDRip-AVC от New-Team | iTunes скачать торрент бесплатно
  • Человек-муравей / Ant-Man (2015) HDRip от Scarabey | iTunes скачать торрент бесплатно
  • Человек-муравей / Ant-Man (2015) BDRip 720p | Лицензия скачать торрент бесплатно


    • Комментарии (0):

      Информация

      Информация

        Посетители, находящиеся в группе Гости, не могут оставлять комментарии в данной новости.

        ↓ Меню



        ↓ Опрос

        А Вы добавили сайт в закладки?
        Да
        Не


        Top 10 за неделю (Фильмы)