.
Авторизация | Регистрация
» » Рассвет мертвецов / Dawn of the Dead (2004) BDRip 720p от NNM-CLUB | D, P, А | Directors Cut скачать торрент бесплатно




    Рассвет мертвецов / Dawn of the Dead (2004) BDRip 720p от NNM-CLUB | D, P, А | Directors Cut скачать торрент бесплатно

    Опубликовал: Админ | Дата: 11-12-2015, 05:01 | Просмотров: 97




    Русское название: Рассвет мертвецов
    Русское название в мировом прокате: Dawn of the Dead
    Создали в: 2004
    Создали в: США, Канада, Франция, Япония, Metropolitan Filmexport, New Amsterdam Entertainment Inc., Strike Entertainment
    Категория жанра: Ужасы, Боевик
    Время просмотра: 01: 49: 23
    Главный режиссер: Зак Снайдер
    Актеры: Сара Полли, Винг Рэймс, Джейк Уэбер, Мехи Файфер, Тай Буррелл, Майкл Келли, Кевин Зегерс, Майкл Бэрри, Линди Бут, Джэйн Иствуд, Бойд Бэнкс

    Описание фильма

    В то время, как Америка содрогается от внезапного нашествия миллионов мертвецов, маленькая группа уцелевших людей пытаются найти убежище и защиту в огромном здании торгового центра. Но они недолго смогут противостоять нападению зомби. Понимая, что время истекает, герои предпринимают попытку побега на безопасный остров, но смогут ли они добраться туда живыми?

    Релиз подготовил: FAGOT100(NNM-CLUB)
    Перевод текста: Дублированный, профессиональный (двухголосый, закадровый) х2, авторский (одноголосый, закадровый) х5
    Субтитры: Русские (forced, full, Bellman, commentary), английские (full, commentary)
    Качество фильма видео: BDRip 720p
    Информация о видео: AVC, 1280x544 (2.35: 1), 23.976 fps, 6900 Kbps (0.415 bit/pixel)
    Информация о звуке #1: AC-3, 48.0 KHz, 6 ch, 640 Kbps (Russian) - дубляж
    Информация о звуке #2: AC-3, 48.0 KHz, 6 ch, 448 Kbps (Russian) - двухголосый - Tycoon
    Информация о звуке #3: AC-3, 48.0 KHz, 6 ch, 640 Kbps (Russian) - авторский А.Гаврилов
    Информация о звуке #4: AC-3, 48.0 KHz, 6 ch, 640 Kbps (Russian) - авторский В.Королёв
    Информация о звуке #5: AC-3, 48.0 KHz, 6 ch, 448 Kbps (Russian) - авторский С.Макашов(нецензурный)
    Информация о звуке #6: AC-3, 48.0 KHz, 2 ch, 192 Kbps (Russian) - двухголосый - SDI Media
    Информация о звуке #7: AC-3, 48.0 KHz, 6 ch, 448 Kbps, CBR (Russian) - авторский Д.Строев(нецензурный)
    Информация о звуке #8: AC-3, 48.0 KHz, 6 ch, 448 Kbps, CBR (Russian) - авторский Bellman
    Информация о звуке #9: AC-3, 48.0 KHz, 6 ch, 640 Kbps, CBR (English) -оригинал
    Информация о звуке #10: AC-3, 48.0 KHz, 2 ch, 192 Kbps, CBR (English) -комментарии
    Сэмпл
    Скриншоты:

    Спасибо!
    За исходник спасибо hdtracker, за перевод SDI Media спасибо Slim9174, за переводы Д.Строева и Bellman спасибо engiallam
    Mediainfo:
    Формат : Matroska
    Версия формата : Version 2
    Размер файла : 9, 06 Гбайт
    Продолжительность : 1 ч. 49 м.
    Общий поток : 11, 9 Мбит/сек
    Название фильма : Dawn of the Dead. 2004 rip by FAGOT100
    Дата кодирования : UTC 2015-12-10 14: 14: 22
    Программа кодирования : mkvmerge v5.3.0 (;I could have danced;) built on Feb 9 2012 10: 38: 07
    Библиотека кодирования : libebml v1.2.3 + libmatroska v1.3.0
    Attachment : Yes
    Видео
    Идентификатор : 1
    Формат : AVC
    Формат/Информация : Advanced Video Codec
    Профиль формата : High@L4.1
    Параметр CABAC формата : Да
    Параметр ReFrames формата : 10 кадров
    Идентификатор кодека : V_MPEG4/ISO/AVC
    Продолжительность : 1 ч. 49 м.
    Битрейт : 6900 Кбит/сек
    Ширина : 1280 пикселей
    Высота : 544 пикселя
    Соотношение сторон : 2, 35: 1
    Режим частоты кадров : Постоянный
    Частота кадров : 23, 976 кадра/сек
    Цветовое пространство : YUV
    Субдискретизация насыщенности : 4: 2: 0
    Битовая глубина : 8 бит
    Тип развёртки : Прогрессивная
    Бит/(Пиксели*Кадры) : 0.413
    Размер потока : 5, 26 Гбайт (58%)
    Библиотека кодирования : x264 core 146 r2538 121396c
    Настройки программы : cabac=1/ref=10/deblock=1: -2: -1/analyse=0x3: 0x133/me=umh/subme=11/psy=1/psy_rd=1.00: 0.00/mixed_ref=1/me_range=32/chroma_me=1/trellis=2/8x8dct=1/cqm=0/deadzone=21, 11/fast_pskip=0/chroma_qp_offset=-2/threads=2/lookahead_threads=2/sliced_threads=0/nr=0/decimate=0/interlaced=0/bluray_compat=0/constrained_intra=0/bframes=8/b_pyramid=2/b_adapt=2/b_bias=0/direct=3/weightb=1/open_gop=0/weightp=2/keyint=240/keyint_min=23/scenecut=40/intra_refresh=0/rc=crf/mbtree=0/crf=17.0/qcomp=0.60/qpmin=0/qpmax=69/qpstep=4/ip_ratio=1.40/pb_ratio=1.30/aq=1: 0.70
    Язык : English
    Default : Да
    Forced : Нет
    Аудио #1
    Идентификатор : 2
    Формат : AC-3
    Формат/Информация : Audio Coding 3
    Расширение режима : CM (complete main)
    Параметр Endianness формата : Big
    Идентификатор кодека : A_AC3
    Продолжительность : 1 ч. 49 м.
    Вид битрейта : Постоянный
    Битрейт : 640 Кбит/сек
    Каналы : 6 каналов
    Расположение каналов : Front: L C R, Side: L R, LFE
    Частота : 48, 0 КГц
    Битовая глубина : 16 бит
    Метод сжатия : С потерями
    Размер потока : 500 Мбайт (5%)
    Заголовок : Дублированный
    Язык : Russian
    Default : Да
    Forced : Нет
    Аудио #2
    Идентификатор : 3
    Формат : AC-3
    Формат/Информация : Audio Coding 3
    Расширение режима : CM (complete main)
    Параметр Endianness формата : Big
    Идентификатор кодека : A_AC3
    Продолжительность : 1 ч. 49 м.
    Вид битрейта : Постоянный
    Битрейт : 448 Кбит/сек
    Каналы : 6 каналов
    Расположение каналов : Front: L C R, Side: L R, LFE
    Частота : 48, 0 КГц
    Битовая глубина : 16 бит
    Метод сжатия : С потерями
    Размер потока : 350 Мбайт (4%)
    Заголовок : Двухголосый - Tycoon
    Язык : Russian
    Default : Нет
    Forced : Нет
    Аудио #3
    Идентификатор : 4
    Формат : AC-3
    Формат/Информация : Audio Coding 3
    Расширение режима : CM (complete main)
    Параметр Endianness формата : Big
    Идентификатор кодека : A_AC3
    Продолжительность : 1 ч. 49 м.
    Вид битрейта : Постоянный
    Битрейт : 640 Кбит/сек
    Каналы : 6 каналов
    Расположение каналов : Front: L C R, Side: L R, LFE
    Частота : 48, 0 КГц
    Битовая глубина : 16 бит
    Метод сжатия : С потерями
    Размер потока : 500 Мбайт (5%)
    Заголовок : Авторский А.Гаврилов
    Язык : Russian
    Default : Нет
    Forced : Нет
    Аудио #4
    Идентификатор : 5
    Формат : AC-3
    Формат/Информация : Audio Coding 3
    Расширение режима : CM (complete main)
    Параметр Endianness формата : Big
    Идентификатор кодека : A_AC3
    Продолжительность : 1 ч. 49 м.
    Вид битрейта : Постоянный
    Битрейт : 640 Кбит/сек
    Каналы : 6 каналов
    Расположение каналов : Front: L C R, Side: L R, LFE
    Частота : 48, 0 КГц
    Битовая глубина : 16 бит
    Метод сжатия : С потерями
    Размер потока : 500 Мбайт (5%)
    Заголовок : Авторский В.Королёв
    Язык : Russian
    Default : Нет
    Forced : Нет
    Аудио #5
    Идентификатор : 6
    Формат : AC-3
    Формат/Информация : Audio Coding 3
    Расширение режима : CM (complete main)
    Параметр Endianness формата : Big
    Идентификатор кодека : A_AC3
    Продолжительность : 1 ч. 49 м.
    Вид битрейта : Постоянный
    Битрейт : 448 Кбит/сек
    Каналы : 6 каналов
    Расположение каналов : Front: L C R, Side: L R, LFE
    Частота : 48, 0 КГц
    Битовая глубина : 16 бит
    Метод сжатия : С потерями
    Размер потока : 350 Мбайт (4%)
    Заголовок : Авторский С.Макашов
    Язык : Russian
    Default : Нет
    Forced : Нет
    Аудио #6
    Идентификатор : 7
    Формат : AC-3
    Формат/Информация : Audio Coding 3
    Расширение режима : CM (complete main)
    Параметр Endianness формата : Big
    Идентификатор кодека : A_AC3
    Продолжительность : 1 ч. 49 м.
    Вид битрейта : Постоянный
    Битрейт : 192 Кбит/сек
    Каналы : 2 канала
    Расположение каналов : Front: L R
    Частота : 48, 0 КГц
    Битовая глубина : 16 бит
    Метод сжатия : С потерями
    Задержка видео : 1 с. 0 мс.
    Размер потока : 150 Мбайт (2%)
    Заголовок : Двухголосый - SDI Media
    Язык : Russian
    Default : Нет
    Forced : Нет
    Аудио #7
    Идентификатор : 8
    Формат : AC-3
    Формат/Информация : Audio Coding 3
    Расширение режима : CM (complete main)
    Параметр Endianness формата : Big
    Идентификатор кодека : A_AC3
    Продолжительность : 1 ч. 49 м.
    Вид битрейта : Постоянный
    Битрейт : 448 Кбит/сек
    Каналы : 6 каналов
    Расположение каналов : Front: L C R, Side: L R, LFE
    Частота : 48, 0 КГц
    Битовая глубина : 16 бит
    Метод сжатия : С потерями
    Размер потока : 350 Мбайт (4%)
    Заголовок : Авторский Д.Строев
    Язык : Russian
    Default : Нет
    Forced : Нет
    Аудио #8
    Идентификатор : 9
    Формат : AC-3
    Формат/Информация : Audio Coding 3
    Расширение режима : CM (complete main)
    Параметр Endianness формата : Big
    Идентификатор кодека : A_AC3
    Продолжительность : 1 ч. 49 м.
    Вид битрейта : Постоянный
    Битрейт : 448 Кбит/сек
    Каналы : 6 каналов
    Расположение каналов : Front: L C R, Side: L R, LFE
    Частота : 48, 0 КГц
    Битовая глубина : 16 бит
    Метод сжатия : С потерями
    Размер потока : 350 Мбайт (4%)
    Заголовок : Авторский - Bellman
    Язык : Russian
    Default : Нет
    Forced : Нет
    Аудио #9
    Идентификатор : 10
    Формат : AC-3
    Формат/Информация : Audio Coding 3
    Расширение режима : CM (complete main)
    Параметр Endianness формата : Big
    Идентификатор кодека : A_AC3
    Продолжительность : 1 ч. 49 м.
    Вид битрейта : Постоянный
    Битрейт : 640 Кбит/сек
    Каналы : 6 каналов
    Расположение каналов : Front: L C R, Side: L R, LFE
    Частота : 48, 0 КГц
    Битовая глубина : 16 бит
    Метод сжатия : С потерями
    Размер потока : 500 Мбайт (5%)
    Заголовок : оригинал
    Язык : English
    Default : Нет
    Forced : Нет
    Аудио #10
    Идентификатор : 11
    Формат : AC-3
    Формат/Информация : Audio Coding 3
    Расширение режима : CM (complete main)
    Параметр Endianness формата : Big
    Идентификатор кодека : A_AC3
    Продолжительность : 1 ч. 49 м.
    Вид битрейта : Постоянный
    Битрейт : 192 Кбит/сек
    Каналы : 2 канала
    Расположение каналов : Front: L R
    Частота : 48, 0 КГц
    Битовая глубина : 16 бит
    Метод сжатия : С потерями
    Размер потока : 150 Мбайт (2%)
    Заголовок : Комментарии
    Язык : English
    Default : Нет
    Forced : Нет
    Текст #1
    Идентификатор : 12
    Формат : UTF-8
    Идентификатор кодека : S_TEXT/UTF8
    Идентификатор кодека/Информация : UTF-8 Plain Text
    Заголовок : forced
    Язык : Russian
    Default : Да
    Forced : Нет
    Текст #2
    Идентификатор : 13
    Формат : UTF-8
    Идентификатор кодека : S_TEXT/UTF8
    Идентификатор кодека/Информация : UTF-8 Plain Text
    Заголовок : full
    Язык : Russian
    Default : Нет
    Forced : Нет
    Текст #3
    Идентификатор : 14
    Формат : UTF-8
    Идентификатор кодека : S_TEXT/UTF8
    Идентификатор кодека/Информация : UTF-8 Plain Text
    Заголовок : Bellman
    Язык : Russian
    Default : Нет
    Forced : Нет
    Текст #4
    Идентификатор : 15
    Формат : UTF-8
    Идентификатор кодека : S_TEXT/UTF8
    Идентификатор кодека/Информация : UTF-8 Plain Text
    Язык : English
    Default : Нет
    Forced : Нет
    Текст #5
    Идентификатор : 16
    Формат : UTF-8
    Идентификатор кодека : S_TEXT/UTF8
    Идентификатор кодека/Информация : UTF-8 Plain Text
    Заголовок : комментарии
    Язык : Russian
    Default : Нет
    Forced : Нет
    Текст #6
    Идентификатор : 17
    Формат : UTF-8
    Идентификатор кодека : S_TEXT/UTF8
    Идентификатор кодека/Информация : UTF-8 Plain Text
    Заголовок : комментарии
    Язык : English
    Default : Нет
    Forced : Нет
    Меню
    00: 00: 00.000 : en: A Nice Day
    00: 04: 29.352 : en: Lock All Doors
    00: 10: 38.888 : en: Main Titles
    00: 13: 15.586 : en: Refuge
    00: 19: 43.223 : en: Intruders
    00: 23: 27.280 : en: Cj;s Turf
    00: 26: 35.594 : en: S.O.S.
    00: 33: 07.026 : en: No More Room
    00: 42: 28.045 : en: New Arrivals
    00: 47: 35.853 : en: Kill Tucker, Too
    00: 56: 29.511 : en: Sickness Rising
    01: 01: 36.526 : en: Blackout
    01: 08: 48.415 : en: Family Man
    01: 15: 22.643 : en: Taking Action
    01: 20: 17.103 : en: Saving Andy
    01: 24: 15.133 : en: Nicole;s Rescue
    01: 30: 03.523 : en: Run!
    01: 33: 27.560 : en: Escape
    01: 39: 47.690 : en: Valor
    01: 44: 36.770 : en: End Titles/Hope


    Онлайн видео Рассвет мертвецов


    Размер скачиваемого торрента: 9.06 GB (9724517250 Bytes)

    Рассвет мертвецов/Dawn of the Dead (2004) BDRip 720p от NNM-CLUB | D, P, А | Directors Cut
    загрузка...
    Рейтинг →
     (голосов: 1, оценка 3/5, голосовать можно 1 раз )

    Другие торренты по теме:

  • Рассвет мертвецов / Dawn of the Dead (2004) BDRip-AVC | Расширенная версия торрент скачать бесплатно
  • Рассвет мертвецов / Dawn of the Dead (2004) BDRip 1080p | Режиссёрская версия / Unrated Directors Cut торрент скачать бесплатно
  • Рассвет мертвецов / Dawn of the Dead (2004) BDRip-AVC | Unrated Directors Cut торрент скачать бесплатно
  • Рассвет мертвецов / Dawn of the Dead (2004) BDRip 1080p | Unrated Directors Cut торрент скачать бесплатно
  • Рассвет мертвецов / Dawn Of The Dead (1978) BDRemux 1080p | P торрент скачать бесплатно
  • Рассвет мертвецов / Dawn Of The Dead (1978) BDRip от HQCLUB скачать через торрент бесплатно
  • Рассвет мертвецов / Dawn Of The Dead (1978) BDRip-AVC от MediaClub | Расширенная версия / Extended Cut | P, P1, A торрент скачать бесплатно
  • Зомби: Рассвет мертвецов / Zombies: Dawn Of The Dead (1978) BDRip-AVC от MediaClub | Версия Ардженто / Argento Cut | P торрент скачать бесплатно


    • Комментарии (0):

      Информация

      Информация

        Посетители, находящиеся в группе Гости, не могут оставлять комментарии в данной новости.

        ↓ Меню



        ↓ Опрос

        А Вы добавили сайт в закладки?
        Да
        Не


        Top 10 за неделю (Фильмы)