.
Авторизация | Регистрация
Хочешь лучшие торренты? Добавь свой email!
Добавить
» » Счастье на поводке / Sreca na vrvici (1977) DVDRip | L1 торрент скачать бесплатно




    Счастье на поводке / Sreca na vrvici (1977) DVDRip | L1 торрент скачать бесплатно

    Опубликовал: Админ | Дата: 16-12-2015, 05:01 | Просмотров: 97



    Детально о кино
    Русское название: Счастье на поводке
    Русское название в мировом прокате: Sreca na vrvici
    Создали в: 1977
    Категория жанра: семейный, приключения
    Главный режиссер: Яне Кавчич

    Актеры
    Матьяж Грудень, Лидия Козлович, Нино де Глерия, Митя Тавчар, Манька Кошир, Иво Бан, Весна Йевникар

    Сюжет фильма

    Жил-был в большом многоэтажном доме мальчик по имени Матиц. С кем-то дружил, с кем-то воевал... Счастливый случай в лице режиссера, разыскивающего для своего фильма главного героя, сделал мальчика хозяином огромного ньюфаундленда, вокруг которого впоследствии произошло много событий, веселых и не очень, что сильно изменило жизнь Матица и других детей, живущих в этом доме.
    Фильм предназначен детям, чтобы они поняли, что не одиноки в своих проблемах, и родителям, чтобы они посмотрели на себя со стороны.
    Фильм снят по одноименной повести словенского детского писателя Витана Маля.

    Создали в: Югославия/Vesna Film, Viba Film
    Время просмотра: 01: 29: 35
    Перевод текста: любительский (одноголосый закадровый) Stalk
    Файл
    Качество фильма: DVDRip
    Тип видео: AVI
    Информация о видео: XviD, 720x528 (4: 3), 25.000 fps, 1995 kbps
    Информация о звуке #1: русский, MP3 2.0, 48 KHz, 128 kbps
    Информация о звуке #2: словенский, MP3 2.0, 48 KHz, 128 kbps
    MediaInfo
    Общее
    Полное имя : Schaste.na.povodke.1977.XviD.DVDRip.fenixclub.avi
    Формат : AVI
    Формат/Информация : Audio Video Interleave
    Размер файла : 1, 42 Гбайт
    Продолжительность : 1 ч. 29 м.
    Общий поток : 2266 Кбит/сек
    Программа кодирования : VirtualDubMod 1.5.10.2 (build 2540/release)
    Библиотека кодирования : VirtualDubMod build 2540/release
    Видео
    Идентификатор : 0
    Формат : MPEG-4 Visual
    Профиль формата : Simple@L3
    Параметр BVOP формата : 4
    Параметр QPel формата : Нет
    Параметр GMC формата : Без точки перехода
    Параметр матрицы формата : Default (MPEG)
    Идентификатор кодека : XVID
    Идентификатор кодека/Подсказка : XviD
    Продолжительность : 1 ч. 29 м.
    Битрейт : 1995 Кбит/сек
    Ширина : 720 пикселей
    Высота : 528 пикселей
    Соотношение сторон : 4: 3
    Частота кадров : 25, 000 кадров/сек
    Цветовое пространство : YUV
    Субдискретизация насыщенности : 4: 2: 0
    Битовая глубина : 8 бит
    Тип развёртки : Прогрессивная
    Метод сжатия : С потерями
    Бит/(Пиксели*Кадры) : 0.210
    Размер потока : 1, 25 Гбайт (88%)
    Библиотека кодирования : XviD 1.0.2 (UTC 2004-08-29)
    Аудио #1
    Идентификатор : 1
    Формат : MPEG Audio
    Версия формата : Version 1
    Профиль формата : Layer 3
    Режим : Joint stereo
    Расширение режима : MS Stereo
    Идентификатор кодека : 55
    Идентификатор кодека/Подсказка : MP3
    Продолжительность : 1 ч. 29 м.
    Вид битрейта : Постоянный
    Битрейт : 128 Кбит/сек
    Каналы : 2 канала
    Частота : 48, 0 КГц
    Метод сжатия : С потерями
    Размер потока : 82, 0 Мбайт (6%)
    Выравнивание : Соединение по промежуткам
    Продолжительность промежутка : 40 мс. (1, 00 видеокадр)
    Время предзагрузки промежутка : 504 мс.
    Аудио #2
    Идентификатор : 2
    Формат : MPEG Audio
    Версия формата : Version 1
    Профиль формата : Layer 3
    Режим : Joint stereo
    Расширение режима : MS Stereo
    Идентификатор кодека : 55
    Идентификатор кодека/Подсказка : MP3
    Продолжительность : 1 ч. 29 м.
    Вид битрейта : Постоянный
    Битрейт : 128 Кбит/сек
    Каналы : 2 канала
    Частота : 48, 0 КГц
    Метод сжатия : С потерями
    Размер потока : 82, 0 Мбайт (6%)
    Выравнивание : Соединение по промежуткам
    Продолжительность промежутка : 40 мс. (1, 00 видеокадр)
    Время предзагрузки промежутка : 504 мс.
    Скриншоты

    Релиз подготовил:
    Залил: makkaronni

    Онлайн видео Счастье на поводке


    Размер скачиваемого торрента: 1.42 GB (1522266112 Bytes)

    Счастье на поводке/Sreca na vrvici (1977) DVDRip | L1
    загрузка...
    Рейтинг →
     (голосов: 1, оценка 3/5, голосовать можно 1 раз )

    Другие торренты по теме:

  • Дамское счастье / The Paradise (2012) WEBDLRip
  • Счастье Эммы / Emmas Gluck (Emmas Bliss) (2006) DVDRip от Getty
  • Счастье на час / Xingfu shiguang / Happy Times (2000) DVD5
  • Вероника. Потерянное счастье (2012) HDTVRip от Files-x
  • Вероника. Потерянное счастье (2012) DVB
  • Вероника. Потерянное счастье (2012) HDTV 1080i
  • А.Н.Островский - Правда хорошо, а счастье лучше (2007) MP3
  • Игорь Поль - Штампованное счастье. Год 2180 (2013) MP3


    • Комментарии (0):

      Информация

      Информация

        Посетители, находящиеся в группе Гости, не могут оставлять комментарии в данной новости.

        ↓ Меню



        ↓ Опрос

        А Вы добавили сайт в закладки?
        Да
        Не


        Top 10 за месяц (Фильмы)