.
Авторизация | Регистрация
Хочешь лучшие торренты? Добавь свой email!
Добавить
» » Другое время / Another Period (2015) WEBDLRip | OZZ торрент скачать бесплатно




    Другое время / Another Period (2015) WEBDLRip | OZZ торрент скачать бесплатно

    Опубликовал: Админ | Дата: 17-12-2015, 05:00 | Просмотров: 109



    Детально о кино
    Русское название: Другое время
    Русское название в мировом прокате: Another Period
    Создали в: 2015
    Категория жанра: комедия
    Главный режиссер: Джереми Коннер

    Актеры
    Майкл Йен Блэк, Пэйджет Брюстер, Кристина Хендрикс, Наташа Леджеро, Рики Линдхоум, Армен Вайцман, Лорен Эш, Бет Довер, Бретт Гельман, Джейсон Риттер

    Сюжет фильма

    1901 год, шикарное поместье в одном из городов США. Избалованные сестры Беатрис и Лилиан Белакорт живут роскошной жизнью, предаваясь всем доступным им порокам. Больше всего на свете они любят комфорт, свою красоту и семейное наследство, а также кокаиновое вино и кидаться в слуг профитролями. Семья и ближайшее окружение им под стать, а их отношения достойны отдельной мыльной оперы: отец тайно находится в сексуальном рабстве у новой служанки-экс-проститутки, мать сидит на модном морфии, мужья любят не своих жен, а друг друга, а одна из сестер — своего брата.

    Снималось в: США
    Время просмотра: ~00: 22: 00 серия
    Перевод текста: Любительский (двухголосый закадровый) Ozz
    Файл
    Кодек для видео: MPEG4/AC3
    Качество фильма: WEBDLRip
    Информация о видео: MPEG4, 720x400 (16: 9), 23.976 fps, 1 789 Kbps (0.259 bit/pixel)
    Информация о звуке: AC-3, 48.0 KHz, 2 ch, 192 Kbps, CBR
    Скриншоты
    MediaInfo
    General
    Complete name : 1-01. Те самые дни.avi
    Format : AVI
    Format/Info : Audio Video Interleave
    File size : 305 MiB
    Duration : 21mn 25s
    Overall bit rate : 1 991 Kbps
    Writing application : Lavf56.36.100
    Video
    ID : 1
    Format : MPEG-4 Visual
    Format profile : Simple@L1
    Format settings, BVOP : No
    Format settings, QPel : No
    Format settings, GMC : No warppoints
    Format settings, Matrix : Default (H.263)
    Codec ID : FMP4
    Duration : 21mn 25s
    Bit rate : 1 789 Kbps
    Width : 720 pixels
    Height : 400 pixels
    Display aspect ratio : 16: 9
    Frame rate : 23.976 fps
    Color space : YUV
    Chroma subsampling : 4: 2: 0
    Bit depth : 8 bits
    Scan type : Progressive
    Compression mode : Lossy
    Bits/(Pixel*Frame) : 0.259
    Stream size : 274 MiB (90%)
    Writing library : Lavc56.41.100
    Audio
    ID : 0
    Format : AC-3
    Format/Info : Audio Coding 3
    Mode extension : CM (complete main)
    Format settings, Endianness : Big
    Codec ID : 2000
    Duration : 21mn 25s
    Bit rate mode : Constant
    Bit rate : 192 Kbps
    Channel(s) : 2 channels
    Channel positions : Front: L R
    Sampling rate : 48.0 KHz
    Bit depth : 16 bits
    Compression mode : Lossy
    Stream size : 29.4 MiB (10%)
    Alignment : Aligned on interleaves
    Interleave, duration : 42 ms (1.00 video frame)
    Title : DVO Ozz-tv


    Онлайн видео Другое время


    Размер скачиваемого торрента: 2.99 GB (3209843226 Bytes)

    Другое время/Another Period (2015) WEBDLRip | OZZ
    загрузка...
    Рейтинг →
     (голосов: 1, оценка 3/5, голосовать можно 1 раз )

    Другие торренты по теме:

  • Другое время (Те самые дни) (1 сезон: 1-2 серии из 10) / Another Period / 2015 / ПД (Ozz), СТ / WEB-DLRip (AVC)
  • Раньше было другое время (1987) VHSRip
  • Другое время / Те самые дни / Another Period (2016) HDTVRip 720p от OZZ | P2
  • Другое время / Те самые дни / Another Period (2015-2016) WEB-DLRip | OZZ


    • Комментарии (0):

      Информация

      Информация

        Посетители, находящиеся в группе Гости, не могут оставлять комментарии в данной новости.

        ↓ Меню



        ↓ Опрос

        А Вы добавили сайт в закладки?
        Да
        Не


        Top 10 за месяц (Фильмы)