.
Авторизация | Регистрация
» » Фатальный инстинкт / Fatal Instinct (1993) BDRip 720p | P, A скачать торрент бесплатно




    Фатальный инстинкт / Fatal Instinct (1993) BDRip 720p | P, A скачать торрент бесплатно

    Опубликовал: Админ | Дата: 18-12-2015, 05:01 | Просмотров: 135


    Фатальный инстинкт/Fatal Instinct (1993) BDRip 720p

    Детально о кино
    Русское название: Фатальный инстинкт
    Русское название в мировом прокате: Fatal Instinct
    Создали в: 1993
    Категория жанра: комедия, триллер, криминал
    Главный режиссер: Карл Райнер

    Актеры
    Арманд Ассанте, Шерилин Фенн, Кейт Неллиган, Шон Янг, Кристофер МакДональд, Джеймс Римар, Тони Рэндалл, Кларенс Клемонс, Майкл Кампсти, Джон Уизерспун

    Сюжет фильма

    Полицейский и адвокат в одном лице являет собой воплощённый укор всей правовой системе, в которой тупоголовые полицейские ловят идиотов-преступников, которых судят продажные судьи, вкупе с такими же присяжными...

    Снималось в: США
    Киностудия: Metro-Goldwyn-Mayer
    Время просмотра: 01: 29: 51
    Перевод текста: Профессиональный двухголосый, авторский
    Файл
    Качество фильма: BDRip 720p
    Информация о видео: MPEG-4 AVC/H.264, 1280x688 (1, 85: 1), 5293 kbps, 23.976 fps
    Информация о звуке # 1: АС3 2.0, 192 kbps, 48 000 Hz - DVO - НТВ
    Информация о звуке # 2: AC3 2.0, 640 kbps, 48 000 Hz - AVO - А.Кашкин (Первомайский)
    Информация о звуке # 3: АС3 2.0, 192 kbps, 48 000 Hz - AVO - В.Стрельцов
    Информация о звуке # 4: АС3 2.0, 192 kbps, 48 000 Hz - MVO - 1+1 - украинский
    Информация о звуке # 5: AC3 2.0, 640 kbps, 48 000 Hz - английский
    Субтитры: Нет
    Скриншоты

    MediaInfo
    Общее
    Уникальный идентификатор : 218856363996949178609501097146895465235 (0xA4A633D6A7FCD055AA4D883E73CE7B13)
    Полное имя : Fatal _Instinct.1993.720p.BDRip.mkv
    Формат : Matroska
    Версия формата : Version 4/Version 2
    Размер файла : 4, 49 Гбайт
    Продолжительность : 1 ч. 29 м.
    Общий поток : 7151 Кбит/сек
    Дата кодирования : UTC 2015-12-17 15: 36: 21
    Программа кодирования : mkvmerge v7.7.0 (;Six Voices;) 32bit built on Feb 28 2015 23: 23: 00
    Библиотека кодирования : libebml v1.3.1 + libmatroska v1.4.2
    Attachements : cover.jpg
    TITLE : FATAL INSTINCT
    DIRECTOR : CARL REINER
    RELEASE : Koenig
    DURATION : 01: 29: 50.464000000
    NUMBER_OF_FRAMES : 168452
    NUMBER_OF_BYTES : 431237120
    _STATISTICS_WRITING_APP : mkvmerge v7.7.0 (;Six Voices;) 32bit built on Feb 28 2015 23: 23: 00
    _STATISTICS_WRITING_DATE_UTC : 2015-12-17 15: 36: 21
    _STATISTICS_TAGS : BPS DURATION NUMBER_OF_FRAMES NUMBER_OF_BYTES
    Видео
    Идентификатор : 1
    Формат : AVC
    Формат/Информация : Advanced Video Codec
    Профиль формата : High@L4.1
    Параметр CABAC формата : Да
    Параметр ReFrames формата : 9 кадров
    Идентификатор кодека : V_MPEG4/ISO/AVC
    Продолжительность : 1 ч. 29 м.
    Битрейт : 5293 Кбит/сек
    Ширина : 1280 пикселей
    Высота : 688 пикселей
    Соотношение сторон : 1, 85: 1
    Режим частоты кадров : Постоянный
    Частота кадров : 23, 976 кадра/сек
    Цветовое пространство : YUV
    Субдискретизация насыщенности : 4: 2: 0
    Битовая глубина : 8 бит
    Тип развёртки : Прогрессивная
    Бит/(Пиксели*Кадры) : 0.251
    Размер потока : 3, 23 Гбайт (72%)
    Библиотека кодирования : x264 core 146 r2538 121396c
    Настройки программы : cabac=1/ref=9/deblock=1: -3: -3/analyse=0x3: 0x133/me=umh/subme=9/psy=1/psy_rd=1.00: 0.10/mixed_ref=1/me_range=32/chroma_me=1/trellis=2/8x8dct=1/cqm=0/deadzone=21, 11/fast_pskip=1/chroma_qp_offset=-3/threads=3/lookahead_threads=1/sliced_threads=0/nr=0/decimate=1/interlaced=0/bluray_compat=0/constrained_intra=0/bframes=9/b_pyramid=2/b_adapt=2/b_bias=0/direct=3/weightb=1/open_gop=0/weightp=2/keyint=240/keyint_min=23/scenecut=40/intra_refresh=0/rc_lookahead=40/rc=2pass/mbtree=1/bitrate=5293/ratetol=1.0/qcomp=0.60/qpmin=10/qpmax=51/qpstep=4/cplxblur=20.0/qblur=0.5/vbv_maxrate=50000/vbv_bufsize=62500/nal_hrd=none/filler=0/ip_ratio=1.40/aq=1: 1.00
    Default : Да
    Forced : Нет
    Аудио #1
    Идентификатор : 2
    Формат : AC-3
    Формат/Информация : Audio Coding 3
    Расширение режима : CM (complete main)
    Параметр Endianness формата : Big
    Идентификатор кодека : A_AC3
    Продолжительность : 1 ч. 29 м.
    Вид битрейта : Постоянный
    Битрейт : 192 Кбит/сек
    Каналы : 2 канала
    Расположение каналов : Front: L R
    Частота : 48, 0 КГц
    Метод сжатия : С потерями
    Размер потока : 123 Мбайт (3%)
    Заголовок : DVO НТВ
    Язык : Russian
    Default : Да
    Forced : Нет
    Аудио #2
    Идентификатор : 3
    Формат : AC-3
    Формат/Информация : Audio Coding 3
    Расширение режима : CM (complete main)
    Параметр Endianness формата : Big
    Идентификатор кодека : A_AC3
    Продолжительность : 1 ч. 29 м.
    Вид битрейта : Постоянный
    Битрейт : 640 Кбит/сек
    Каналы : 2 канала
    Расположение каналов : Front: L R
    Частота : 48, 0 КГц
    Метод сжатия : С потерями
    Размер потока : 411 Мбайт (9%)
    Заголовок : AVO - А.Кашкин
    Язык : Russian
    Default : Нет
    Forced : Нет
    Аудио #3
    Идентификатор : 4
    Формат : AC-3
    Формат/Информация : Audio Coding 3
    Расширение режима : CM (complete main)
    Параметр Endianness формата : Big
    Идентификатор кодека : A_AC3
    Продолжительность : 1 ч. 29 м.
    Вид битрейта : Постоянный
    Битрейт : 192 Кбит/сек
    Каналы : 2 канала
    Расположение каналов : Front: L R
    Частота : 48, 0 КГц
    Метод сжатия : С потерями
    Размер потока : 123 Мбайт (3%)
    Заголовок : AVO - В.Стрельцов
    Язык : Russian
    Default : Нет
    Forced : Нет
    Аудио #4
    Идентификатор : 5
    Формат : AC-3
    Формат/Информация : Audio Coding 3
    Расширение режима : CM (complete main)
    Параметр Endianness формата : Big
    Идентификатор кодека : A_AC3
    Продолжительность : 1 ч. 29 м.
    Вид битрейта : Постоянный
    Битрейт : 192 Кбит/сек
    Каналы : 2 канала
    Расположение каналов : Front: L R
    Частота : 48, 0 КГц
    Метод сжатия : С потерями
    Размер потока : 123 Мбайт (3%)
    Заголовок : MVO - 1+1
    Язык : Ukrainian
    Default : Нет
    Forced : Нет
    Аудио #5
    Идентификатор : 6
    Формат : AC-3
    Формат/Информация : Audio Coding 3
    Расширение режима : CM (complete main)
    Параметр Endianness формата : Big
    Идентификатор кодека : A_AC3
    Продолжительность : 1 ч. 29 м.
    Вид битрейта : Постоянный
    Битрейт : 640 Кбит/сек
    Каналы : 2 канала
    Расположение каналов : Front: L R
    Частота : 48, 0 КГц
    Метод сжатия : С потерями
    Размер потока : 411 Мбайт (9%)
    Язык : English
    Default : Нет
    Forced : Нет

    Релиз подготовил: Koenig

    Онлайн видео Фатальный инстинкт


    Размер скачиваемого торрента: 4.49 GB (4819026310 Bytes)

    Фатальный инстинкт/Fatal Instinct (1993) BDRip 720p | P, A
    загрузка...
    Рейтинг →
     (голосов: 1, оценка 5/5, голосовать можно 1 раз )

    Другие торренты по теме:

  • Гепард: Фатальный инстинкт / National Geographic: Cheetah: Fatal Instinct (2012) HDTVRip торрент скачать бесплатно
  • Фатальный инстинкт / Fatal Instinct (1993) DVDRip скачать через торрент бесплатно
  • Фатальный инстинкт / Fatal Instinct (1993) HDTV 1080i ot Brazzass торрент скачать бесплатно
  • Фатальный инстинкт / Роковой инстинкт / Fatal Instinct (1993) HDTVRip от GeneralFilm скачать через торрент бесплатно
  • Фатальный инстинкт / Fatal Instinct (1993) BDRip от Koenig | P, A скачать торрент бесплатно


    • Комментарии (0):

      Информация

      Информация

        Посетители, находящиеся в группе Гости, не могут оставлять комментарии в данной новости.

        ↓ Меню



        ↓ Опрос

        А Вы добавили сайт в закладки?
        Да
        Не


        Top 10 за неделю (Фильмы)