.
Авторизация | Регистрация
Хочешь лучшие торренты? Добавь свой email!
Добавить
» » Стар Трек: Отступники / Star Trek: Renegades (2015) WEB-DL 720p | L1 торрент скачать бесплатно




    Стар Трек: Отступники / Star Trek: Renegades (2015) WEB-DL 720p | L1 торрент скачать бесплатно

    Опубликовал: Админ | Дата: 19-12-2015, 05:01 | Просмотров: 149



    Детально о кино
    Русское название: Стар Трек: Отступники
    Русское название в мировом прокате: Star Trek: Renegades
    Создали в: 2015
    Категория жанра: фантастика, боевик, приключения
    Главный режиссер: Тим Расс

    Актеры
    Эдриэнн Уилкинсон, Уолтер Кениг, Шон Янг, Ману Интирэйми, Корин Немек, Гари Грэхэм, Брюс А. Янг, Тим Расс, Чести Бальестерос, Эдвард Ферлонг

    Сюжет фильма
    Прошло почти десять лет после возвращения Вояджера. Федерация находится в кризисе. Основные поставщики кристаллов Федерации исчезают. Пространство и время уже сложено вокруг нескольких планет, эффективно изолируя их от любых контактов с внешним миром. И это явление не является естественным — кто-то или что-то хочет, чтобы это произошло. Для этого, адмирал Павел Чехов, глава Звездного Флота разведки, обращается к командиру Тувоку, бывшему офицеру безопасности Вояджера и нынешнему главе. Тувок должен собрать новый экипаж — в основном изгои и жулики — даже преступники. Этому новому экипажу поручено выяснить, что является причиной сворачивания пространства и времени, и остановить это — любой ценой.


    Снималось в: США/Atomic Studios, Skyway Productions, ST Renegades
    Время просмотра: 01: 27: 23
    Тип перевода: Любительское (одноголосое) Lord32x
    Файл
    Тип видео: MKV
    Качество фильма: WEB-DL 720p
    Информация о видео: MPEG-4 AVC, 3800 kb/s, 1280x640
    Информация о звуке: Russian/English: AC3, 192 kb/s (2 ch)
    MI

    Format : Matroska
    Format version : Version 2
    File size : 2.55 GiB
    Duration : 1h 27mn
    Overall bit rate : 4 182 Kbps
    Encoded date : UTC 2015-12-18 15: 09: 24
    Writing application : mkvmerge v7.8.0 (;River Man;) 32bit built on Apr 3 2015 12: 11: 22
    Writing library : libebml v1.3.1 + libmatroska v1.4.2
    Video
    ID : 1
    Format : AVC
    Format/Info : Advanced Video Codec
    Format profile : High@L4.1
    Format settings, CABAC : Yes
    Format settings, ReFrames : 12 frames
    Codec ID : V_MPEG4/ISO/AVC
    Duration : 1h 27mn
    Bit rate : 3 800 Kbps
    Width : 1 280 pixels
    Height : 640 pixels
    Display aspect ratio : 2.000
    Frame rate mode : Constant
    Frame rate : 23.976 fps
    Color space : YUV
    Chroma subsampling : 4: 2: 0
    Bit depth : 8 bits
    Scan type : Progressive
    Bits/(Pixel*Frame) : 0.193
    Stream size : 2.27 GiB (89%)
    Writing library : x264 core 142 r2431+42 c69a006 tMod 8-bit@all X86_64
    Encoding settings : cabac=1/ref=12/deblock=1: -3: -3/analyse=0x3: 0x133/me=umh/subme=11/psy=1/fade_compensate=0.00/psy_rd=1.05: 0.10/mixed_ref=1/me_range=32/chroma_me=1/trellis=2/8x8dct=1/cqm=0/deadzone=21, 11/fast_pskip=0/chroma_qp_offset=-3/threads=6/lookahead_threads=1/sliced_threads=0/nr=0/decimate=0/interlaced=0/bluray_compat=0/constrained_intra=0/fgo=0/bframes=10/b_pyramid=2/b_adapt=2/b_bias=0/direct=3/weightb=1/open_gop=0/weightp=2/keyint=250/keyint_min=23/scenecut=40/intra_refresh=0/rc_lookahead=60/rc=2pass/mbtree=1/bitrate=3800/ratetol=1.0/qcomp=0.70/qpmin=0: 0: 0/qpmax=69: 69: 69/qpstep=4/cplxblur=20.0/qblur=0.5/vbv_maxrate=62500/vbv_bufsize=32768/nal_hrd=none/filler=0/ip_ratio=1.40/aq=1: 1.00/aq-sensitivity=10.00/aq-factor=1.00: 1.00: 1.00/aq2=0/aq3=0
    Language : English
    Default : Yes
    Forced : No
    Audio #1
    ID : 2
    Format : AC-3
    Format/Info : Audio Coding 3
    Mode extension : CM (complete main)
    Format settings, Endianness : Big
    Codec ID : A_AC3
    Duration : 1h 27mn
    Bit rate mode : Constant
    Bit rate : 192 Kbps
    Channel(s) : 2 channels
    Channel positions : Front: L R
    Sampling rate : 48.0 KHz
    Bit depth : 16 bits
    Compression mode : Lossy
    Stream size : 120 MiB (5%)
    Language : Russian
    Default : Yes
    Forced : No
    Audio #2
    ID : 3
    Format : AC-3
    Format/Info : Audio Coding 3
    Mode extension : CM (complete main)
    Format settings, Endianness : Big
    Codec ID : A_AC3
    Duration : 1h 27mn
    Bit rate mode : Constant
    Bit rate : 192 Kbps
    Channel(s) : 2 channels
    Channel positions : Front: L R
    Sampling rate : 48.0 KHz
    Bit depth : 16 bits
    Compression mode : Lossy
    Stream size : 120 MiB (5%)
    Language : English
    Default : No
    Forced : No
    Скриншоты






    Онлайн видео Стар Трек: Отступники


    Размер скачиваемого торрента: 2.55 GB (2740658511 Bytes)

    Стар Трек: Отступники/Star Trek: Renegades (2015) WEB-DL 720p | L1
    загрузка...
    Рейтинг →
     (голосов: 1, оценка 3/5, голосовать можно 1 раз )

    Другие торренты по теме:

  • Стар Треш: Шерлок против Робокопа / Star Trek Into Darkness (2014) HDRip | Смешной перевод скачать через торрент бесплатно
  • Стар против Сил Зла / Star vs the Forces of Evil (2016-2017) WEB-DLRip от ExKinoRay | L2


    • Комментарии (0):

      Информация

      Информация

        Посетители, находящиеся в группе Гости, не могут оставлять комментарии в данной новости.

        ↓ Меню



        ↓ Опрос

        А Вы добавили сайт в закладки?
        Да
        Не


        Top 10 за месяц (Фильмы)