.
Авторизация | Регистрация
Хочешь лучшие торренты? Добавь свой email!
Добавить
» » Временно недоступен (2015) WEB-DLRip от GeneralFilm торрент скачать бесплатно




    Временно недоступен (2015) WEB-DLRip от GeneralFilm торрент скачать бесплатно

    Опубликовал: Админ | Дата: 22-12-2015, 05:00 | Просмотров: 163



    Русское название в мировом прокате: Временно недоступен
    Создали в: 2015
    Категория жанра: Комедия
    Снималось в: Россия, Magic Factory, Front Line Studio
    Главный режиссер: Михаил Хлебородов

    Актеры
    Сергей Безруков, Дмитрий Дюжев, Вера Шпак, Екатерина Федулова, Валерия Ланская, Олег Тактаров, Ричард Бондарев, Дмитрий Хрусталёв, Георгий Мартиросян, Александр Тютин, Сергей Вершинин, Евгения Нохрина, Олег Чудницов, Елена Киркова, Александр Аноприков, Андрей Кивинов, Антон Ескин, Сергей Стёпин, Любовь Фирсова, Андрей Лебедев, Олег Макаров, Бесо Гатаев, Виктор Муравский, Игорь Маслов (II), Михаил Гудошников, Екатерина Захарова (II), Ирина Токмакова, Анна Перелешина, Сергей Астахов, Константин Мурзенко, Александр Баширов, Мария Романова

    Сюжет фильма
    Московский чиновник по правовым вопросам в районной администрации Вячеслав Золотов и следователь Следственного Комитета по Калининграду Антон Плетнев в один прекрасный день меняются местами, сами того не желая. Одному из них предстоит стать ревизором и провести проверку в провинциальном городе, второму, оставшемуся в больнице без документов, доказать, что он – это он. Вопрос в том, кто из них лучше справится со своей ролью, а главное, сумеют ли они оба вовремя и без потерь прекратить этот спектакль.
    Качество фильма: WEB-DLRip
    Информация о видео: XviD, ~ 1350 Кбит/с, 720x400
    Информация о звуке: AC3, 2 ch, 192 Кбит/с
    Время просмотра: 1 x ~ 00: 50: 00
    МедиаИнфо
    Общее
    Полное имя : Vremenno.Nedostupen.2015.XviD.WEB-DLRip.by.GeneralFilm?1.seriya.avi
    Формат : AVI
    Формат/Информация : Audio Video Interleave
    Размер файла : 556 Мбайт
    Продолжительность : 50 м.
    Общий поток : 1546 Кбит/сек
    Программа кодирования : VirtualDubMod 1.5.10.3 | www.virtualdub-fr.org || (build 2550/release)
    Библиотека кодирования : VirtualDubMod build 2550/release
    Видео
    Идентификатор : 0
    Формат : MPEG-4 Visual
    Профиль формата : Advanced Simple@L5
    Параметр BVOP формата : 1
    Параметр QPel формата : Нет
    Параметр GMC формата : Без точки перехода
    Параметр матрицы формата : Выборочная
    Идентификатор кодека : XVID
    Идентификатор кодека/Подсказка : XviD
    Продолжительность : 50 м.
    Битрейт : 1344 Кбит/сек
    Ширина : 720 пикселей
    Высота : 400 пикселей
    Соотношение сторон : 16: 9
    Частота кадров : 25, 000 кадров/сек
    Цветовое пространство : YUV
    Субдискретизация насыщенности : 4: 2: 0
    Битовая глубина : 8 бит
    Тип развёртки : Прогрессивная
    Метод сжатия : С потерями
    Бит/(Пиксели*Кадры) : 0.187
    Размер потока : 483 Мбайт (87%)
    Библиотека кодирования : XviD 73
    Аудио
    Идентификатор : 1
    Формат : AC-3
    Формат/Информация : Audio Coding 3
    Расширение режима : CM (complete main)
    Параметр Endianness формата : Big
    Идентификатор кодека : 2000
    Продолжительность : 50 м.
    Вид битрейта : Постоянный
    Битрейт : 192 Кбит/сек
    Каналы : 2 канала
    Расположение каналов : Front: L R
    Частота : 48, 0 КГц
    Частота кадров : 31, 250 кадров/сек (1536 spf)
    Метод сжатия : С потерями
    Размер потока : 69, 0 Мбайт (12%)
    Выравнивание : Разделение по промежуткам
    Продолжительность промежутка : 40 мс. (1, 00 видеокадр)
    Время предзагрузки промежутка : 500 мс.

    Семпл
    http://sendfile.su/1185453

    Скриншоты



    Релиз подготовил:
    Исходник 1080р:
    Залил: vsobbol
    Размер скачиваемого торрента: 555.95 MB (582959104 Bytes)

    Временно недоступен (2015) WEB-DLRip от GeneralFilm
    загрузка...
    Рейтинг →
     (голосов: 1, оценка 3/5, голосовать можно 1 раз )

    Другие торренты по теме:

  • Временно недоступен (2015) WEB-DLRip от MegaPeer
  • Временно недоступен (2015) WEB-DLRip от ExKinoRay
  • Временно недоступен (2015) HDTV 1080i от GeneralFilm
  • Временно недоступен HDTVRip 720p от GeneralFilm
  • Временно недоступен (2015)


    • Комментарии (0):

      Информация

      Информация

        Посетители, находящиеся в группе Гости, не могут оставлять комментарии в данной новости.

        ↓ Меню



        ↓ Опрос

        А Вы добавили сайт в закладки?
        Да
        Не


        Top 10 за месяц (Фильмы)