.
Авторизация | Регистрация
» » Убей меня трижды / Kill Me Three Times (2014) DVD-9 | Ger Transfer | P | Лицензия скачать торрент бесплатно




    Убей меня трижды / Kill Me Three Times (2014) DVD-9 | Ger Transfer | P | Лицензия скачать торрент бесплатно

    Опубликовал: Админ | Дата: 25-12-2015, 05:01 | Просмотров: 111



    Детально о кино
    Русское название: Убей меня три раза
    Русское название в мировом прокате: Kill Me Three Times
    Создали в: 2014
    Категория жанра: Триллер
    Главный режиссер: Крив Стендерс

    Актеры
    Тереза Палмер, Саймон Пегг, Люк Хемсворт, Алиси Брага, Салливан Степлтон, Каллэн Мулвей, Брайан Браун, Стив Ле Маркванд, Тони Спенсер, Анна Филп

    Сюжет фильма
    Чарли Вульф — наемный убийца, который ненавидит, когда в его дела вмешивается кто-нибудь посторонний. Однажды к нему обращается старый знакомый Джек Тейлор, который предлагает ему пятьдесят тысяч за убийство своей жены во время ее визита к стоматологу. Выследив жертву, Чарли готовится выполнить заказ, но вскоре замечает, как дантист и его медсестра-ассистентка грузят тело супруги Джека в багажник автомобиля. Киллер совершенно не ожидал такого поворота событий и начал слежку за своими конкурентами. Он уверен только в одном, что смерти этой женщины хочет не только Джек, но возвращать свой гонорар Чарли не намерен...

    Время просмотра: 01: 27: 22
    Перевод текста: Профессиональный многоголосый
    Файл
    Кодек для видео: MPEG-2
    Качество фильма: DVD-9
    Информация о видео: MPEG2, PAL 16: 9 (720x576) VBR, 25, 000 кадров/сек
    Информация о звуке: Русский, Французский DD 5.1 (384 Kbps), Английский, Немецкий DD 5.1 (448 Kbps)
    Меню
    DVDInfo
    Title:
    Size: 5.37 Gb ( 5 628 008 KBytes ) - DVD-9
    Enabled regions: 1, 2, 3, 4, 5, 6, 7, 8
    VTS_01 :
    Play Length: 01: 26: 57+00: 00: 07+00: 00: 10+00: 00: 08
    Video: PAL 16: 9 (720x576) VBR, Auto PanScan
    Audio:
    English (Dolby AC3, 6 ch)
    Francais (Dolby AC3, 6 ch)
    Deutsch (Dolby AC3, 6 ch)
    Russian (Dolby AC3, 6 ch)
    Subtitles:
    English
    Francais
    Deutsch
    Nederlands
    Dansk
    Suomi
    Hindi
    Norsk
    Portugues
    Svenska
    Francais
    Deutsch
    VTS_02 :
    Play Length: 00: 00: 01
    Video: PAL 16: 9 (720x576) VBR, Auto PanScan
    Audio:
    Not specified (Dolby AC3, 6 ch)
    Menu Video:
    PAL 16: 9 (720x576) VBR
    Auto PanScan
    Menu Subtitles:
    Not specified
    Menu English Language Unit :
    Root Menu
    MediaInfo

    Общее
    Полное имя : D: ААА2Убей меня три разаVIDEO_TSVTS_01_1.VOB
    Формат : MPEG-PS
    Размер файла : 1024 Мбайт
    Продолжительность : 16 м.
    Режим общего битрейта : Переменный
    Общий поток : 8751 Кбит/сек
    Библиотека кодирования : encoded by TMPGEnc (ver. 2.524.63.181)
    Видео
    Идентификатор : 224 (0xE0)
    Формат : MPEG Video
    Версия формата : Version 2
    Профиль формата : Main@Main
    Параметр BVOP формата : Да
    Параметр матрицы формата : Выборочная
    Параметр GOP формата : Variable
    Продолжительность : 16 м.
    Вид битрейта : Переменный
    Битрейт : 6913 Кбит/сек
    Ширина : 720 пикселей
    Высота : 576 пикселей
    Соотношение сторон : 16: 9
    Частота кадров : 25, 000 кадров/сек
    Стандарт вещания : PAL
    Цветовое пространство : YUV
    Субдискретизация насыщенности : 4: 2: 0
    Битовая глубина : 8 бит
    Метод сжатия : С потерями
    Бит/(Пиксели*Кадры) : 0.667
    TimeCode_FirstFrame : 00: 00: 00: 00
    TimeCode_Source : Group of pictures t_head
    Размер потока : 809 Мбайт (79%)
    Библиотека кодирования : TMPGEnc 2.524.63.181
    Основные цвета : BT.601 PAL
    Характеристики трансфера : BT.470 System B, BT.470 System G
    Коэффициенты матрицы : BT.601
    Аудио #1
    Идентификатор : 189 (0xBD)-128 (0x80)
    Формат : AC-3
    Формат/Информация : Audio Coding 3
    Расширение режима : CM (complete main)
    Параметр Endianness формата : Big
    Режим смешивания : DVD-Video
    Продолжительность : 16 м.
    Вид битрейта : Постоянный
    Битрейт : 448 Кбит/сек
    Каналы : 6 каналов
    Расположение каналов : Front: L C R, Side: L R, LFE
    Частота : 48, 0 КГц
    Битовая глубина : 16 бит
    Метод сжатия : С потерями
    Размер потока : 52, 4 Мбайт (5%)
    Аудио #2
    Идентификатор : 189 (0xBD)-129 (0x81)
    Формат : AC-3
    Формат/Информация : Audio Coding 3
    Расширение режима : CM (complete main)
    Параметр Endianness формата : Big
    Режим смешивания : DVD-Video
    Продолжительность : 16 м.
    Вид битрейта : Постоянный
    Битрейт : 448 Кбит/сек
    Каналы : 6 каналов
    Расположение каналов : Front: L C R, Side: L R, LFE
    Частота : 48, 0 КГц
    Битовая глубина : 16 бит
    Метод сжатия : С потерями
    Размер потока : 52, 4 Мбайт (5%)
    Аудио #3
    Идентификатор : 189 (0xBD)-130 (0x82)
    Формат : AC-3
    Формат/Информация : Audio Coding 3
    Расширение режима : CM (complete main)
    Параметр Endianness формата : Big
    Режим смешивания : DVD-Video
    Продолжительность : 16 м.
    Вид битрейта : Постоянный
    Битрейт : 384 Кбит/сек
    Каналы : 6 каналов
    Расположение каналов : Front: L C R, Side: L R, LFE
    Частота : 48, 0 КГц
    Битовая глубина : 16 бит
    Метод сжатия : С потерями
    Размер потока : 44, 9 Мбайт (4%)
    Аудио #4
    Идентификатор : 189 (0xBD)-131 (0x83)
    Формат : AC-3
    Формат/Информация : Audio Coding 3
    Расширение режима : CM (complete main)
    Параметр Endianness формата : Big
    Режим смешивания : DVD-Video
    Продолжительность : 16 м.
    Вид битрейта : Постоянный
    Битрейт : 384 Кбит/сек
    Каналы : 6 каналов
    Расположение каналов : Front: L C R, Side: L R, LFE
    Частота : 48, 0 КГц
    Битовая глубина : 16 бит
    Метод сжатия : С потерями
    Размер потока : 44, 9 Мбайт (4%)
    Меню


    Скриншоты

    Релиз:
    Залил: YArl

    Онлайн видео Убей меня трижды


    Размер скачиваемого торрента: 5.37 GB (5763080192 Bytes)

    Убей меня трижды/Kill Me Three Times (2014) DVD-9 | Ger Transfer | P | Лицензия
    загрузка...
    Рейтинг →
     (голосов: 1, оценка 4/5, голосовать можно 1 раз )

    Другие торренты по теме:

  • Убей меня / Kill Me (2012) DVDRip | L2 торрент скачать бесплатно
  • Я знаю, кто убил меня / Know Who Killed Me (2007) BD-Remux 1080p торрент скачать бесплатно
  • Нам и не снилось. Убей меня нежно (2013) SATRip торрент скачать бесплатно
  • Нам и не снилось! Убей меня нежно (2013) IPTVRip торрент скачать бесплатно
  • Убей меня снова / Kill Me Again (1989) DVD-9 торрент скачать бесплатно
  • Убей меня нежно / Killing Me Softly (2002) BDRip от Rulya74 торрент скачать бесплатно
  • Убей меня нежно / Killing Me Softly (2002) BDRip от HQCLUB торрент скачать бесплатно
  • Убей меня нежно / Killing Me Softly (2002) BDRip 1080p | P2 торрент скачать бесплатно


    • Комментарии (0):

      Информация

      Информация

        Посетители, находящиеся в группе Гости, не могут оставлять комментарии в данной новости.

        ↓ Меню



        ↓ Опрос

        А Вы добавили сайт в закладки?
        Да
        Не


        Top 10 за неделю (Фильмы)