.
Авторизация | Регистрация
» » Марсианин / The Martian (2015) WEB-DLRip | КПК | Чистый звук скачать торрент бесплатно




    Марсианин / The Martian (2015) WEB-DLRip | КПК | Чистый звук скачать торрент бесплатно

    Опубликовал: Админ | Дата: 25-12-2015, 05:01 | Просмотров: 156


    • Марсианин/The Martian •
    ? Снималось в: США, Великобритания
    ? Создали в: 20th Century Fox Film Corporation, Genre Films, International Traders, Mid Atlantic Films, Scott Free Productions, TSG Entertainment
    ? Создали в: 2015
    ? Категория жанра: фантастика, приключения
    ? Главный режиссёр: Ридли Скотт
    ?
    Актеры
    Мэтт Дэймон, Джессика Честейн, Чиветел Эджиофор, Кристен Уиг, Джефф Дэниелс, Майкл Пенья, Шон Бин, Кейт Мара, Себастьян Стэн, Аксель Хенни, Бенедикт Вонг, Маккензи Дэвис, Дональд Гловер, Ник Мохаммед, Чен Шу, Эдди Ко, Энцо Чиленти, Джонатан Арис, Граффадд Глин, Наоми Скотт.

    ? Перевод текста: Профессиональный (полное дублирование) Чистый звук


    Описание фильма
    Марсианская миссия Арес-3 в процессе работы была вынуждена экстренно покинуть планету из-за надвигающейся песчаной бури. Инженер и биолог Марк Уотни получил повреждение скафандра во время песчаной бури. Сотрудники миссии, посчитав его погибшим, эвакуировались с планеты, оставив Марка одного.

    Очнувшись, Уотни обнаруживает, что связь с Землёй отсутствует, но при этом полностью функционирует жилой модуль. Главный герой начинает искать способ продержаться на имеющихся запасах еды, витаминов, воды и воздуха ещё 4 года до прилёта следующей миссии Арес-4.




    ? Качество фильма: WEB-DLRip
    ? Время просмотра: 02: 21: 50

    ? Тип видео: MP4
    ? Информация о видео кодек: H.264
    ? Информация о звуке кодек: AAC-LC
    ? Свойства видео: 640x266 (2: 41: 1), 23.976 fps, 500 kbps (0.122 bit/pixel)
    ? Свойства аудио: 48.0 KHz, 2 ch, 128 kbps
    MediaInfo
    General
    Complete name : Mарсиaнин.2015.WEB-DLRip.mp4
    Format : MPEG-4
    Format profile : Base Media
    Codec ID : isom
    File size : 641 MiB
    Duration : 2h 21mn
    Overall bit rate mode : Variable
    Overall bit rate : 632 Kbps
    Encoded date : UTC 2015-12-24 14: 20: 26
    Tagged date : UTC 2015-12-24 14: 20: 26

    Video
    ID : 1
    Format : AVC
    Format/Info : Advanced Video Codec
    Format profile : High@L4.1
    Format settings, CABAC : Yes
    Format settings, ReFrames : 9 frames
    Codec ID : avc1
    Codec ID/Info : Advanced Video Coding
    Duration : 2h 21mn
    Bit rate : 500 Kbps
    Maximum bit rate : 1 639 Kbps
    Width : 640 pixels
    Height : 266 pixels
    Display aspect ratio : 2.40: 1
    Frame rate mode : Constant
    Frame rate : 23.976 fps
    Color space : YUV
    Chroma subsampling : 4: 2: 0
    Bit depth : 8 bits
    Scan type : Progressive
    Bits/(Pixel*Frame) : 0.122
    Stream size : 507 MiB (79%)
    Title : 264@GPAC0.5.2-DEV-rev248-g39d5978-master
    Writing library : x264 core 146 r2538 121396c
    Encoding settings : cabac=1/ref=9/deblock=1: -3: -3/analyse=0x3: 0x113/me=umh/subme=11/psy=1/psy_rd=1.00: 0.00/mixed_ref=1/me_range=32/chroma_me=1/trellis=2/8x8dct=1/cqm=0/deadzone=21, 11/fast_pskip=0/chroma_qp_offset=-2/threads=6/lookahead_threads=1/sliced_threads=0/nr=0/decimate=0/interlaced=0/bluray_compat=0/constrained_intra=0/bframes=9/b_pyramid=2/b_adapt=2/b_bias=0/direct=3/weightb=1/open_gop=0/weightp=2/keyint=240/keyint_min=23/scenecut=40/intra_refresh=0/rc=2pass/mbtree=0/bitrate=500/ratetol=1.0/qcomp=0.60/qpmin=0/qpmax=69/qpstep=4/cplxblur=20.0/qblur=0.5/ip_ratio=1.40/pb_ratio=1.30/aq=1: 1.00
    Encoded date : UTC 2015-12-24 14: 20: 26
    Tagged date : UTC 2015-12-24 14: 20: 48

    Audio
    ID : 2
    Format : AAC
    Format/Info : Advanced Audio Codec
    Format profile : LC
    Codec ID : 40
    Duration : 2h 21mn
    Bit rate mode : Variable
    Bit rate : 128 Kbps
    Maximum bit rate : 154 Kbps
    Channel(s) : 2 channels
    Channel positions : Front: L R
    Sampling rate : 48.0 KHz
    Compression mode : Lossy
    Stream size : 130 MiB (20%)
    Encoded date : UTC 2015-12-24 10: 33: 16
    Tagged date : UTC 2015-12-24 14: 20: 48
    Скриншоты

    Залил: ProT1gR

    Онлайн видео Марсианин


    Размер скачиваемого торрента: 640.89 MB (672017849 Bytes)

    Марсианин/The Martian (2015) WEB-DLRip | КПК | Чистый звук
    загрузка...
    Рейтинг →
     (голосов: 1, оценка 3/5, голосовать можно 1 раз )

    Другие торренты по теме:

  • Мой любимый марсианин / My Favorite Martian (1999) WEB-DLRip торрент скачать бесплатно
  • Мой любимый марсианин / My Favorite Martian (1999) WEB-DL (720p) от HDClub | D торрент скачать бесплатно
  • Марсианин / The Martian (2015) WEBRip 1080p | Трейлер скачать торрент бесплатно
  • Марсианин / The Martian (2015) DCPRip | 4K | Трейлер скачать торрент бесплатно
  • Марсианин / The Martian (2015) WEBRip | Звук с TS скачать торрент бесплатно
  • Марсианин / The Martian (2015) WEB-DL 1080р | Чистый звук скачать торрент бесплатно
  • Марсианин / The Martian (2015) WEB-DLRip от Scarabey | Чистый звук скачать торрент бесплатно
  • Марсианин / The Martian (2015) BDRip 720p | iTunes скачать торрент бесплатно


    • Комментарии (0):

      Информация

      Информация

        Посетители, находящиеся в группе Гости, не могут оставлять комментарии в данной новости.

        ↓ Меню



        ↓ Опрос

        А Вы добавили сайт в закладки?
        Да
        Не


        Top 10 за неделю (Фильмы)