.
Авторизация | Регистрация
» » Мавзолей для шлюхи / Mausole pour une garce (2001) DVD-9 | P скачать торрент бесплатно




    Мавзолей для шлюхи / Mausole pour une garce (2001) DVD-9 | P скачать торрент бесплатно

    Опубликовал: Админ | Дата: 27-12-2015, 05:02 | Просмотров: 266



    Детально о кино
    Русское название: Мавзолей для шлюхи
    Русское название в мировом прокате: Mausol?e pour une garce
    Создали в: 2001
    Категория жанра: Триллер
    Главный режиссер: Арно Селиньяк

    Актеры
    Сильви Вартан, Франсис Юстер, Жак Вебер, Амели Доре, Тьерри Новик, Наталья Дончева, Лоран Ольмедо, Чик Ортега, Марианн Гров, Рэкуэл Энрикес, Педро Лагина, Филипп Леруа, Карла Оливейра

    Сюжет фильма
    Аньес Тарид живет в роскошном доме со вторым мужем, удачливым бизнесменом Анри, и 18-летней дочерью Евой от первого брака. Ева мечется по барам, заводя случайные знакомства, Анри с трудом скрывает свою страсть к падчерице, а Аньес встречается с молодым красавцем Эрве, готовым ради своей любовницы на что угодно. И однажды она приказывает ему убить пьяницу-клошара по прозвищу Нотариус. Что может быть общего между респектабельной дамой и опустившимся бродягой?..

    Время просмотра: 03: 01: 06
    Перевод текста: Профессиональный многоголосый
    Файл
    Кодек для видео: MPEG-2
    Качество фильма: DVD-9
    Информация о видео: MPEG2, PAL 16: 9 (720x576) VBR, 25, 000 кадров/сек
    Информация о звуке: Русский, Французский DD 2.0 (192 Kbps)
    Меню
    DVDInfo
    Title:
    Size: 7.74 Gb ( 8 116 822 KBytes ) - DVD-9
    Enabled regions: 1, 2, 3, 4, 5, 6, 7, 8
    VTS_01 :
    Play Length: 00: 00: 10
    Video: PAL 16: 9 (720x576) VBR, Auto PanScan, Auto Letterboxed
    VTS_02 :
    Play Length: 00: 00: 07
    Video: PAL 16: 9 (720x576) VBR, Auto PanScan, Auto Letterboxed
    Audio:
    English (Dolby AC3, 6 ch)
    VTS_03 :
    Play Length: 00: 00: 50
    Video: PAL 4: 3 (720x576) VBR
    VTS_04 :
    Play Length: 03: 01: 06
    Video: PAL 16: 9 (720x576) VBR, Auto PanScan, Auto Letterboxed
    Audio:
    Russian (Dolby AC3, 2 ch)
    Francais (Dolby AC3, 2 ch)
    Subtitles:
    Russian
    Menu Video:
    PAL 16: 9 (720x576) VBR
    Auto PanScan, Auto Letterboxed
    Menu Subtitles:
    Not specified
    Menu English Language Unit :
    Root Menu
    MediaInfo

    Общее
    Полное имя : D: ААА2Мавзолей для шлюхиVIDEO_TSVTS_04_1.VOB
    Формат : MPEG-PS
    Размер файла : 1024 Мбайт
    Продолжительность : 23 м.
    Режим общего битрейта : Переменный
    Общий поток : 6208 Кбит/сек
    Видео
    Идентификатор : 224 (0xE0)
    Формат : MPEG Video
    Версия формата : Version 2
    Профиль формата : Main@Main
    Параметр BVOP формата : Да
    Параметр матрицы формата : Выборочная
    Параметр GOP формата : Variable
    Продолжительность : 23 м.
    Вид битрейта : Переменный
    Битрейт : 5701 Кбит/сек
    Максимальный битрейт : 8900 Кбит/сек
    Ширина : 720 пикселей
    Высота : 576 пикселей
    Соотношение сторон : 16: 9
    Частота кадров : 25, 000 кадров/сек
    Стандарт вещания : PAL
    Цветовое пространство : YUV
    Субдискретизация насыщенности : 4: 2: 0
    Битовая глубина : 8 бит
    Тип развёртки : Чересстрочная
    Порядок развёртки : Верхнее поле первое
    Метод сжатия : С потерями
    Бит/(Пиксели*Кадры) : 0.550
    TimeCode_FirstFrame : 10: 00: 00: 00
    TimeCode_Source : Group of pictures t_head
    Размер потока : 940 Мбайт (92%)
    Аудио #1
    Идентификатор : 189 (0xBD)-128 (0x80)
    Формат : AC-3
    Формат/Информация : Audio Coding 3
    Расширение режима : CM (complete main)
    Параметр Endianness формата : Big
    Режим смешивания : DVD-Video
    Продолжительность : 23 м.
    Вид битрейта : Постоянный
    Битрейт : 192 Кбит/сек
    Каналы : 2 канала
    Расположение каналов : Front: L R
    Частота : 48, 0 КГц
    Битовая глубина : 16 бит
    Метод сжатия : С потерями
    Размер потока : 31, 7 Мбайт (3%)
    Аудио #2
    Идентификатор : 189 (0xBD)-129 (0x81)
    Формат : AC-3
    Формат/Информация : Audio Coding 3
    Расширение режима : CM (complete main)
    Параметр Endianness формата : Big
    Режим смешивания : DVD-Video
    Продолжительность : 23 м.
    Вид битрейта : Постоянный
    Битрейт : 192 Кбит/сек
    Каналы : 2 канала
    Расположение каналов : Front: L R
    Частота : 48, 0 КГц
    Битовая глубина : 16 бит
    Метод сжатия : С потерями
    Размер потока : 31, 7 Мбайт (3%)
    Текст
    Идентификатор : 189 (0xBD)-32 (0x20)
    Формат : RLE
    Формат/Информация : Run-length encoding
    Режим смешивания : DVD-Video
    Продолжительность : 22 м.
    Задержка видео : 4 с. 360 мс.
    Меню


    Скриншоты

    Залил: YArl

    Онлайн видео Мавзолей для шлюхи


    Размер скачиваемого торрента: 7.74 GB (8311625728 Bytes)

    Мавзолей для шлюхи/Mausole pour une garce (2001) DVD-9 | P
    загрузка...
    Рейтинг →
     (голосов: 1, оценка 3/5, голосовать можно 1 раз )

    Другие торренты по теме:

  • Мавзолей (2012) HDTVRip от GeneralFilm торрент скачать бесплатно


    • Комментарии (0):

      Информация

      Информация

        Посетители, находящиеся в группе Гости, не могут оставлять комментарии в данной новости.

        ↓ Меню



        ↓ Опрос

        А Вы добавили сайт в закладки?
        Да
        Не


        Top 10 за неделю (Фильмы)