.
Авторизация | Регистрация
Хочешь лучшие торренты? Добавь свой email!
Добавить
» » Иррациональный человек / Irrational Man (2015) BDRip 720p | Чистый звук торрент скачать бесплатно




    Иррациональный человек / Irrational Man (2015) BDRip 720p | Чистый звук торрент скачать бесплатно

    Опубликовал: Админ | Дата: 28-12-2015, 05:01 | Просмотров: 366



    Детально о кино
    Русское название: Иррациональный человек
    Русское название в мировом прокате:
    Создали в: 2015
    Категория жанра: драма, детектив
    Главный режиссер: Вуди Аллен

    Актеры
    Хоакин Феникс, Эмма Стоун, Джейми Блэкли, Паркер Поузи, Джо Степлтон, Нэнси Кэрролл, Эллисон Галлерани, Бригитт Ланди-Пейн, Кэтлин Семер, Бетси Айдем

    Сюжет фильма
    Профессор философии Эйб Лукас опустошен: он не видит в своей жизни ни радости, ни смысла. На лето Эйб приезжает преподавать в небольшой колледж, где у него завязываются отношения с двумя очень разными женщинами. Рита, его новая коллега, воображает, что именно он вызволит ее из несчастливого брака. А Джилл, его лучшая студентка, становится ему ближайшим другом. Но девушку неодолимо притягивают мятущаяся творческая натура Эйба и его загадочное прошлое, и она все больше отдаляется от своего бойфренда, Роя… Все меняет невольно подслушанный Эйбом и Джилл разговор, после которого Эйб, стряхнув с себя равнодушие и отчаяние, решает действовать… Абсолютно иррационально.


    Снималось в: США/Gravier Productions
    Время просмотра: 01: 34: 50
    Тип перевода: Дублированное Чистый звук
    Файл
    Тип видео: MKV
    Качество фильма: BDRip 720p
    Информация о видео: MPEG-4 AVC, 4926 kb/s, 1280x532
    Информация о звуке: Russian: AC3, 192 kb/s (2 ch)/English: AC3, 640 kb/s (6 ch)
    MI

    Format : Matroska
    Format version : Version 2
    File size : 3.81 GiB
    Duration : 1h 34mn
    Overall bit rate : 5 759 Kbps
    Encoded date : UTC 2015-12-27 15: 34: 58
    Writing application : mkvmerge v7.8.0 (;River Man;) 32bit built on Apr 3 2015 12: 11: 22
    Writing library : libebml v1.3.1 + libmatroska v1.4.2
    Video
    ID : 1
    Format : AVC
    Format/Info : Advanced Video Codec
    Format profile : High@L4.1
    Format settings, CABAC : Yes
    Format settings, ReFrames : 9 frames
    Codec ID : V_MPEG4/ISO/AVC
    Duration : 1h 34mn
    Bit rate : 4 926 Kbps
    Width : 1 280 pixels
    Height : 532 pixels
    Display aspect ratio : 2.40: 1
    Frame rate mode : Constant
    Frame rate : 23.976 fps
    Color space : YUV
    Chroma subsampling : 4: 2: 0
    Bit depth : 8 bits
    Scan type : Progressive
    Bits/(Pixel*Frame) : 0.302
    Stream size : 3.19 GiB (84%)
    Writing library : x264 core 142 r2431+42 c69a006 tMod 8-bit@4: 2: 0 X86_64
    Encoding settings : cabac=1/ref=9/deblock=1: -3: -3/analyse=0x3: 0x133/me=umh/subme=11/psy=1/fade_compensate=0.00/psy_rd=1.00: 0.05/mixed_ref=1/me_range=32/chroma_me=1/trellis=2/8x8dct=1/cqm=0/deadzone=21, 11/fast_pskip=0/chroma_qp_offset=-3/threads=12/lookahead_threads=2/sliced_threads=0/nr=0/decimate=0/interlaced=0/bluray_compat=0/constrained_intra=0/fgo=0/bframes=8/b_pyramid=2/b_adapt=2/b_bias=0/direct=3/weightb=1/open_gop=0/weightp=2/keyint=250/keyint_min=23/scenecut=40/intra_refresh=0/rc_lookahead=60/rc=2pass/mbtree=1/bitrate=4926/ratetol=1.0/qcomp=0.60/qpmin=0: 0: 0/qpmax=69: 69: 69/qpstep=4/cplxblur=20.0/qblur=0.5/vbv_maxrate=62500/vbv_bufsize=32768/nal_hrd=none/filler=0/ip_ratio=1.40/aq=3: 1.00/aq-sensitivity=10.00/aq-factor=1.00: 1.00: 1.00/aq2=0/aq3=0
    Language : English
    Default : Yes
    Forced : No
    Audio #1
    ID : 2
    Format : AC-3
    Format/Info : Audio Coding 3
    Mode extension : CM (complete main)
    Format settings, Endianness : Big
    Codec ID : A_AC3
    Duration : 1h 34mn
    Bit rate mode : Constant
    Bit rate : 192 Kbps
    Channel(s) : 2 channels
    Channel positions : Front: L R
    Sampling rate : 48.0 KHz
    Bit depth : 16 bits
    Compression mode : Lossy
    Stream size : 130 MiB (3%)
    Language : Russian
    Default : Yes
    Forced : No
    Audio #2
    ID : 3
    Format : AC-3
    Format/Info : Audio Coding 3
    Mode extension : CM (complete main)
    Format settings, Endianness : Big
    Codec ID : A_AC3
    Duration : 1h 34mn
    Bit rate mode : Constant
    Bit rate : 640 Kbps
    Channel(s) : 6 channels
    Channel positions : Front: L C R, Side: L R, LFE
    Sampling rate : 48.0 KHz
    Bit depth : 16 bits
    Compression mode : Lossy
    Stream size : 434 MiB (11%)
    Language : English
    Default : No
    Forced : No
    Menu
    00: 00: 00.000 : en: Chapter 01
    00: 04: 40.113 : en: Chapter 02
    00: 09: 23.688 : en: Chapter 03
    00: 13: 29.850 : en: Chapter 04
    00: 17: 54.323 : en: Chapter 05
    00: 23: 17.646 : en: Chapter 06
    00: 30: 58.147 : en: Chapter 07
    00: 38: 20.881 : en: Chapter 08
    00: 45: 41.071 : en: Chapter 09
    00: 54: 50.287 : en: Chapter 10
    01: 00: 09.981 : en: Chapter 11
    01: 04: 34.912 : en: Chapter 12
    01: 09: 43.804 : en: Chapter 13
    01: 13: 58.475 : en: Chapter 14
    01: 20: 16.019 : en: Chapter 15
    01: 26: 02.115 : en: Chapter 16
    Скриншоты





    Онлайн видео Иррациональный человек


    Размер скачиваемого торрента: 3.81 GB (4095705132 Bytes)

    Иррациональный человек/Irrational Man (2015) BDRip 720p | Чистый звук
    загрузка...
    Рейтинг →
     (голосов: 1, оценка 5/5, голосовать можно 1 раз )

    Другие торренты по теме:

  • Иррациональный человек / Irrational Man (2015) BDRip-AVC от HELLYWOOD | iTunes
  • Иррациональный человек / Irrational Man (2015) Blu-ray 1080p от BlueBird | D | iTunes
  • Иррациональный человек / Irrational Man (2015) HDRip | A
  • Иррациональный человек / Irrational Man (2015) BDRip 720p от NNNB | D, A


    • Комментарии (0):

      Информация

      Информация

        Посетители, находящиеся в группе Гости, не могут оставлять комментарии в данной новости.

        ↓ Меню



        ↓ Опрос

        А Вы добавили сайт в закладки?
        Да
        Не


        Top 10 за месяц (Фильмы)