.
Авторизация | Регистрация
Хочешь лучшие торренты? Добавь свой email!
Добавить
» » Спасение / Extraction (2015) WEB-DL 720p | Extended Cut | iTunes торрент скачать бесплатно




    Спасение / Extraction (2015) WEB-DL 720p | Extended Cut | iTunes торрент скачать бесплатно

    Опубликовал: Админ | Дата: 31-12-2015, 10:42 | Просмотров: 10155



    Детально о кино
    Русское название: Спасение
    Русское название в мировом прокате: Extraction
    Создали в: 2015
    Категория жанра: боевик, триллер
    Главный режиссер: Стивен С. Миллер

    Актеры
    Брюс Уиллис, Келлан Латс, Джина Карано, Д.Б. Суини, Джошуа Микель, Стив Култер, Ден Билзерян, Хезер Йохансен, Роберт Мартин Стейнберг, Саммер Элтис

    Сюжет фильма
    Группа террористов похищает бывшего оперативного агента ЦРУ, чтобы использовать его в своих корыстных целях. Не дождавшись помощи от правительства, его сын начинает собственную операцию по спасению отца и возвращению его домой…


    Снималось в: Канада/Aperture Entertainment, Emmett/Furla Films, Oasis Films, Twirly Films Limited
    Время просмотра: 01: 28: 05
    Тип перевода: Дублированное iTunes
    Примечание: EXTENDED - Расширенная версия! Длиннее театральной на 6 минут! Полный лицензионный дубляж!
    Файл
    Тип видео: MKV
    Качество фильма: WEB-DL 720p
    Информация о видео: MPEG-4 AVC, 3900 kb/s, 1280@960x532
    Информация о звуке: AC3, 384 kb/s (6 ch)
    MI

    Format : Matroska
    Format version : Version 4/Version 2
    File size : 2.69 GiB
    Duration : 1h 28mn
    Overall bit rate : 4 371 Kbps
    Encoded date : UTC 2015-12-29 19: 07: 48
    Writing application : mkvmerge v8.3.0 (;Over the Horizon;) 64bit
    Writing library : libebml v1.3.1 + libmatroska v1.4.2
    Video
    ID : 1
    Format : AVC
    Format/Info : Advanced Video Codec
    Format profile : Main@L3.1
    Format settings, CABAC : No
    Format settings, ReFrames : 2 frames
    Codec ID : V_MPEG4/ISO/AVC
    Duration : 1h 28mn
    Bit rate : 3 900 Kbps
    Width : 960 pixels
    Height : 532 pixels
    Display aspect ratio : 2.40: 1
    Frame rate mode : Constant
    Frame rate : 25.000 fps
    Color space : YUV
    Chroma subsampling : 4: 2: 0
    Bit depth : 8 bits
    Scan type : Progressive
    Bits/(Pixel*Frame) : 0.305
    Stream size : 2.40 GiB (89%)
    Language : English
    Default : Yes
    Forced : No
    Color range : Limited
    Color primaries : BT.709
    Transfer characteristics : BT.709
    Matrix coefficients : BT.709
    Audio
    ID : 2
    Format : AC-3
    Format/Info : Audio Coding 3
    Mode extension : CM (complete main)
    Format settings, Endianness : Big
    Codec ID : A_AC3
    Duration : 1h 28mn
    Bit rate mode : Constant
    Bit rate : 384 Kbps
    Channel(s) : 6 channels
    Channel positions : Front: L C R, Side: L R, LFE
    Sampling rate : 48.0 KHz
    Bit depth : 16 bits
    Compression mode : Lossy
    Stream size : 242 MiB (9%)
    Language : Russian
    Default : Yes
    Forced : No
    Menu
    00: 00: 00.000 : en: Глава 1
    00: 05: 13.000 : en: Глава 2
    00: 10: 32.000 : en: Глава 3
    00: 16: 11.000 : en: Глава 4
    00: 23: 30.000 : en: Глава 5
    00: 28: 38.000 : en: Глава 6
    00: 33: 36.000 : en: Глава 7
    00: 42: 08.000 : en: Глава 8
    00: 52: 36.000 : en: Глава 9
    01: 01: 43.000 : en: Глава 10
    01: 10: 06.000 : en: Глава 11
    01: 20: 01.000 : en: Глава 12
    Скриншоты





    Онлайн видео Спасение


    Размер скачиваемого торрента: 2.69 GB (2888219909 Bytes)

    Спасение/Extraction (2015) WEB-DL 720p | Extended Cut | iTunes
    загрузка...
    Рейтинг →
     (голосов: 1, оценка 4/5, голосовать можно 1 раз )

    Другие торренты по теме:

  • Спасение / Extraction (2015) WEB-DLRip | L
  • Спасение / Extraction (2015) WEB-DLRip от MegaPeer | Extended Cut | iTunes


    • Комментарии (0):

      Информация

      Информация

        Посетители, находящиеся в группе Гости, не могут оставлять комментарии в данной новости.

        ↓ Меню



        ↓ Опрос

        А Вы добавили сайт в закладки?
        Да
        Не


        Top 10 за месяц (Фильмы)