.
Авторизация | Регистрация
Хочешь лучшие торренты? Добавь свой email!
Добавить
» » Поединок в Диггстауне / Diggstown (1992) BDRip от AleksSin | P, P2, A торрент скачать бесплатно




    Поединок в Диггстауне / Diggstown (1992) BDRip от AleksSin | P, P2, A торрент скачать бесплатно

    Опубликовал: Админ | Дата: 31-12-2015, 10:42 | Просмотров: 78



    Детально о кино
    Русское название: Поединок в Диггстауне
    Русское название в мировом прокате: Diggstown
    Создали в: 1992
    Категория жанра: драма, криминал, спорт
    Главный режиссер: Майкл Ритчи/Michael Ritchie

    Актеры
    Джеймс Вудс, Луис Госсетт Мл., Брюс Дерн, Оливер Платт, Хизер Грэм, Рэндолл Текс Кобб, Томас Уилсон Браун, Дуан Дэвис, Дэвид Фреско, Уилли Грин

    Сюжет фильма

    Даже попав в тюремные застенки, отпетый мошенник не теряет времени даром, зарабатывая капитал на организации побегов. Оказавшись на свободе, он вместе со своим напарником организует тотализатор на боксерских поединках…

    Снималось в: США
    Киностудия: Eclectic Pictures Inc
    Время просмотра: 01: 37: 46
    Перевод текста: профессиональный многоголосый, профессиональный двухголосый, авторский
    Файл
    Кодек для видео: AVI (XviD)
    Качество фильма: BDRip Исходник: BDRemux 1080p
    Информация о видео: 704x368 (1.91: 1), 23.976 fps, XviD MPEG-4 ~2199 kbps avg, 0.36 bit/pixel
    Информация о звуке: Русский: 48 kHz, AC3, 2/0 (L, R) ch, ~192 kbps avg | Профессиональный (многоголосый закадровый)
    Информация о звуке 2: Русский: 48 kHz, AC3, 2/0 (L, R) ch, ~192 kbps avg | Двухголосый закадровый, НТВ+
    Информация о звуке 3: Русский: 48 kHz, AC3, 2/0 (L, R) ch, ~192 kbps avg | Авторский (одноголосый, закадровый) В.Горчаков
    Информация о звуке 4: Английский: 48 kHz, AC3 Dolby Digital, 2/0 (L, R) ch, ~384 kbps | оригинал
    Субтитры: Русские, Английские (внешние .srt*)
    Семпл
    Отчёт MediaInfo

    Общее
    Полное имя : S: ФильмыПоединок в Диггстауне. 1992. BDRip. 2.18 (AleksSin)Поединок в Диггстауне. 1992. BDRip. 2.18 (AleksSin).avi
    Формат : AVI
    Формат/Информация : Audio Video Interleave
    Профиль формата : OpenDML
    Размер файла : 2, 18 Гбайт
    Продолжительность : 1 ч. 37 м.
    Общий поток : 3190 Кбит/сек
    Программа кодирования : VirtualDubMod 1.5.10.3 (build 2550/release)
    Библиотека кодирования : VirtualDubMod build 2550/release
    Видео
    Идентификатор : 0
    Формат : MPEG-4 Visual
    Профиль формата : Advanced Simple@L5
    Параметр BVOP формата : 1
    Параметр QPel формата : Нет
    Параметр GMC формата : Без точки перехода
    Параметр матрицы формата : Выборочная
    Идентификатор кодека : XVID
    Идентификатор кодека/Подсказка : XviD
    Продолжительность : 1 ч. 37 м.
    Битрейт : 2199 Кбит/сек
    Ширина : 704 пикселя
    Высота : 368 пикселей
    Соотношение сторон : 1, 913
    Частота кадров : 23, 976 кадра/сек
    Цветовое пространство : YUV
    Субдискретизация насыщенности : 4: 2: 0
    Битовая глубина : 8 бит
    Тип развёртки : Прогрессивная
    Метод сжатия : С потерями
    Бит/(Пиксели*Кадры) : 0.354
    Размер потока : 1, 50 Гбайт (69%)
    Библиотека кодирования : XviD 73
    Аудио #1
    Идентификатор : 1
    Формат : AC-3
    Формат/Информация : Audio Coding 3
    Расширение режима : CM (complete main)
    Параметр Endianness формата : Big
    Идентификатор кодека : 2000
    Продолжительность : 1 ч. 37 м.
    Вид битрейта : Постоянный
    Битрейт : 192 Кбит/сек
    Каналы : 2 канала
    Расположение каналов : Front: L R
    Частота : 48, 0 КГц
    Битовая глубина : 16 бит
    Метод сжатия : С потерями
    Размер потока : 134 Мбайт (6%)
    Выравнивание : Разделение по промежуткам
    Продолжительность промежутка : 42 мс. (1, 00 видеокадр)
    Время предзагрузки промежутка : 500 мс.
    Аудио #2
    Идентификатор : 2
    Формат : AC-3
    Формат/Информация : Audio Coding 3
    Расширение режима : CM (complete main)
    Параметр Endianness формата : Big
    Идентификатор кодека : 2000
    Продолжительность : 1 ч. 37 м.
    Вид битрейта : Постоянный
    Битрейт : 192 Кбит/сек
    Каналы : 2 канала
    Расположение каналов : Front: L R
    Частота : 48, 0 КГц
    Битовая глубина : 16 бит
    Метод сжатия : С потерями
    Размер потока : 134 Мбайт (6%)
    Выравнивание : Разделение по промежуткам
    Продолжительность промежутка : 42 мс. (1, 00 видеокадр)
    Время предзагрузки промежутка : 500 мс.
    Аудио #3
    Идентификатор : 3
    Формат : AC-3
    Формат/Информация : Audio Coding 3
    Расширение режима : CM (complete main)
    Параметр Endianness формата : Big
    Идентификатор кодека : 2000
    Продолжительность : 1 ч. 37 м.
    Вид битрейта : Постоянный
    Битрейт : 192 Кбит/сек
    Каналы : 2 канала
    Расположение каналов : Front: L R
    Частота : 48, 0 КГц
    Битовая глубина : 16 бит
    Метод сжатия : С потерями
    Размер потока : 134 Мбайт (6%)
    Выравнивание : Разделение по промежуткам
    Продолжительность промежутка : 42 мс. (1, 00 видеокадр)
    Время предзагрузки промежутка : 500 мс.
    Аудио #4
    Идентификатор : 4
    Формат : AC-3
    Формат/Информация : Audio Coding 3
    Расширение режима : CM (complete main)
    Параметр Endianness формата : Big
    Идентификатор кодека : 2000
    Продолжительность : 1 ч. 37 м.
    Вид битрейта : Постоянный
    Битрейт : 384 Кбит/сек
    Каналы : 2 канала
    Расположение каналов : Front: L R
    Частота : 48, 0 КГц
    Битовая глубина : 16 бит
    Метод сжатия : С потерями
    Размер потока : 269 Мбайт (12%)
    Выравнивание : Разделение по промежуткам
    Продолжительность промежутка : 42 мс. (1, 00 видеокадр)
    Время предзагрузки промежутка : 500 мс.

    Скриншоты

    Релиз подготовил:
    Залил: *AleksSin*

    Онлайн видео Поединок в Диггстауне


    Размер скачиваемого торрента: 2.18 GB (2339540294 Bytes)

    Поединок в Диггстауне/Diggstown (1992) BDRip от AleksSin | P, P2, A
    загрузка...
    Рейтинг →
     (голосов: 1, оценка 5/5, голосовать можно 1 раз )

    Другие торренты по теме:

  • Поединок в Диггстауне / Diggstown (1992) HDTVRip 720p | P
  • Поединок в Диггстауне / Diggstown (1992) HDTVRip от Leon-masl | P2, A
  • Поединок в Диггстауне / Diggstown (1992) BDRip 720p | P, P2, A


    • Комментарии (0):

      Информация

      Информация

        Посетители, находящиеся в группе Гости, не могут оставлять комментарии в данной новости.

        ↓ Меню



        ↓ Опрос

        А Вы добавили сайт в закладки?
        Да
        Не


        Top 10 за месяц (Фильмы)