.
Авторизация | Регистрация
» » Конец детства / Childhoods End (2015) WEB-DLRip | КПК | Lostfilm скачать торрент бесплатно




    Конец детства / Childhoods End (2015) WEB-DLRip | КПК | Lostfilm скачать торрент бесплатно

    Опубликовал: Админ | Дата: 31-12-2015, 14:37 | Просмотров: 48


    • Конец детства/Childhood;s End •
    ? Снималось в: США
    ? Создали в: SyFy
    ? Создали в: 2015
    ? Категория жанра: фантастика, триллер, драма
    ? Главный режиссёр: Ник Харран
    ?
    Актеры
    Майк Фогель, Ози Икхайл, Дэйзи Беттс, Джорджина Хэйг, Чарльз Дэнс, Эшли Цукерман, Хейли Магнус, Шарлотта Никдао, Яэль Стоун, Лачлан Роланд-Кенн.

    ? Перевод текста: Профессиональный (многоголосый, закадровый от Lostfilm)


    Описание фильма
    Сериал расскажет о мирном вторжении пришельцев на Землю: прибытие инопланетных гостей привело к немедленному прекращению войн и превратило планету практически в утопию.



    ? Качество фильма: WEB-DLRip
    ? Время просмотра: по ~ 00: 60: 00

    ? Тип видео: MP4
    ? Информация о видео кодек: H.264
    ? Информация о звуке кодек: AAC-LC
    ? Свойства видео: 640x360 (16: 9), 23.976 fps, 500 kbps (0.091 bit/pixel)
    ? Свойства аудио: 48.0 KHz, 2 ch, 128 kbps
    MediaInfo
    General
    Complete name : Childhoods.End.S01E01.WEB-DLRip.rus.LostFilm.mp4
    Format : MPEG-4
    Format profile : Base Media
    Codec ID : isom
    File size : 195 MiB
    Duration : 43mn 6s
    Overall bit rate mode : Variable
    Overall bit rate : 632 Kbps
    Encoded date : UTC 2015-12-24 17: 22: 40
    Tagged date : UTC 2015-12-24 17: 22: 40

    Video
    ID : 1
    Format : AVC
    Format/Info : Advanced Video Codec
    Format profile : High@L4.1
    Format settings, CABAC : Yes
    Format settings, ReFrames : 9 frames
    Codec ID : avc1
    Codec ID/Info : Advanced Video Coding
    Duration : 43mn 5s
    Bit rate : 500 Kbps
    Maximum bit rate : 1 777 Kbps
    Width : 640 pixels
    Height : 360 pixels
    Display aspect ratio : 16: 9
    Frame rate mode : Constant
    Frame rate : 23.976 fps
    Color space : YUV
    Chroma subsampling : 4: 2: 0
    Bit depth : 8 bits
    Scan type : Progressive
    Bits/(Pixel*Frame) : 0.091
    Stream size : 154 MiB (79%)
    Title : 264@GPAC0.5.2-DEV-rev248-g39d5978-master
    Writing library : x264 core 146 r2538 121396c
    Encoding settings : cabac=1/ref=9/deblock=1: -3: -3/analyse=0x3: 0x113/me=umh/subme=11/psy=1/psy_rd=1.00: 0.00/mixed_ref=1/me_range=32/chroma_me=1/trellis=2/8x8dct=1/cqm=0/deadzone=21, 11/fast_pskip=0/chroma_qp_offset=-2/threads=6/lookahead_threads=1/sliced_threads=0/nr=0/decimate=0/interlaced=0/bluray_compat=0/constrained_intra=0/bframes=9/b_pyramid=2/b_adapt=2/b_bias=0/direct=3/weightb=1/open_gop=0/weightp=2/keyint=240/keyint_min=23/scenecut=40/intra_refresh=0/rc=2pass/mbtree=0/bitrate=500/ratetol=1.0/qcomp=0.60/qpmin=0/qpmax=69/qpstep=4/cplxblur=20.0/qblur=0.5/ip_ratio=1.40/pb_ratio=1.30/aq=1: 1.00
    Encoded date : UTC 2015-12-24 17: 22: 40
    Tagged date : UTC 2015-12-24 17: 22: 47

    Audio
    ID : 2
    Format : AAC
    Format/Info : Advanced Audio Codec
    Format profile : LC
    Codec ID : 40
    Duration : 43mn 6s
    Bit rate mode : Variable
    Bit rate : 128 Kbps
    Maximum bit rate : 149 Kbps
    Channel(s) : 2 channels
    Channel positions : Front: L R
    Sampling rate : 48.0 KHz
    Compression mode : Lossy
    Stream size : 39.4 MiB (20%)
    Encoded date : UTC 2015-12-24 14: 57: 19
    Tagged date : UTC 2015-12-24 17: 22: 47
    Скриншоты

    Залил: ProT1gR

    Онлайн видео Конец детства


    Размер скачиваемого торрента: 575.43 MB (603377043 Bytes)

    Конец детства/Childhoods End (2015) WEB-DLRip | КПК | Lostfilm
    загрузка...
    Рейтинг →
     (голосов: 1, оценка 5/5, голосовать можно 1 раз )

    Другие торренты по теме:

  • Кларк Артур - Конец детства (2011) MP3 торрент скачать бесплатно
  • Конец детства / Childhoods End (2015) WEBRip 1080p | Трейлер скачать торрент бесплатно
  • Конец детства / Childhoods End (2015) WEB-DLRip | BaibaKo скачать торрент бесплатно
  • Конец детства / Childhoods End (2015) WEB-DL 720p | NewStudio скачать торрент бесплатно
  • Конец детства / Childhoods End (2015) WEB-DL 1080p от qqss44 | NewStudio скачать торрент бесплатно
  • Конец детства / Childhoods End (2015) WEB-DL 1080p | BaibaKo скачать торрент бесплатно
  • Конец детства / Childhoods End (2015) WEB-DLRip | IdeaFilm скачать торрент бесплатно
  • Конец детства / Childhoods End (2015) HDTVRip 720р | ViruseProject скачать торрент бесплатно


    • Комментарии (0):

      Информация

      Информация

        Посетители, находящиеся в группе Гости, не могут оставлять комментарии в данной новости.

        ↓ Меню



        ↓ Опрос

        А Вы добавили сайт в закладки?
        Да
        Не


        Top 10 за неделю (Фильмы)