.
Авторизация | Регистрация
» » Антиганг / Antigang (2015) HDRip-AVC | L скачать торрент бесплатно




    Антиганг / Antigang (2015) HDRip-AVC | L скачать торрент бесплатно

    Опубликовал: Админ | Дата: 2-01-2016, 05:01 | Просмотров: 96



    Детально о кино
    Русское название: Антиганг/Отряд
    Русское название в мировом прокате: Antigang
    Создали в: 2015
    Категория жанра: боевик, драма
    Главный режиссёр: Бенжамен Роше
    В полях: Жан Рено, Элбан Ленуар, Катерина Мурино, Умар Диау, Стефи Сельма, Себастьен ЛаЛэйнн, Тьерри Нёвик, Жан-Туссен Бернард, Якоб Седергрен

    Сюжет фильма

    Серж Бюрен — легендарный полицейский, возглавляющий группу молодых приспешников с нетипичным подходом. И неважно, используют ли они бейсбольные биты или напрочь забывают об уставе во время показательных арестов, результат налицо. В то же время группировка смертоносных грабителей с легкостью обчищает столичные банки и ювелирные магазины. Бюрен и его подразделение попадают в непростую ситуацию: окажутся ли привычные им методы быстрого реагирования достаточными, для того чтобы остановить преступников?

    Снималось в: Франция/Capture The Flag Films
    Время просмотра: 01: 32: 43
    Тип перевода: Любительское (многоголосное) Студия Paradox Omskbird records
    • Роли озвучивали: Анна Тух, Александр Дасевич, Константин Погодаев, Сергей Науменко, Паевл Ярощик и Давид Бродский
    • Перевод: Екатерина Кузнецова
    Примечание : Релиз без рекламы .
    Файл
    Тип видео: MKV
    Качество фильма: HDRip-AVC
    Информация о видео: High@L4.1, ~1792 kb/s, 1016x424
    Информация о звуке: AC3, 448 kb/s (6 ch)

    M/I
    General
    Unique ID : 239292215964242497588669495257097966447 (0xB406012190F97F40B8F24D3CE272136F)
    Complete name : F: FILMSНОВЫЕАнтиганг.(2015).HDRIP_AVC.-=DoMiNo=-.mkv
    Format : Matroska
    Format version : Version 4/Version 2
    File size : 1.45 GiB
    Duration : 1h 32mn
    Overall bit rate : 2 241 Kbps
    Movie name : Антиганг
    Writing application : XviD4PSP 7.0.197
    Writing library : Lavf56.40.101/Lavf56.40.101
    Attachements : cover.png
    ACTORS : Жан Рено, Элбан Ленуар, Катерина Мурино, Умар Диау, Стефи Сельма, Себастьен ЛаЛэйнн, Тьерри Нёвик, Жан-Туссен Бернард, Якоб Седергрен, Esther Koziol, показать всех
    COUNTRY : Франция
    DATE : 2015
    DIRECTOR : Бенжамен Роше
    ENCODING_INFO : MATROSKA, WEBM MKV/H264 X264 VBR-2P 1792kbps Custom/AC3 AC3 CBR 448kbps
    GENRE : боевик, драма
    IMDB_RATING : 5.70
    ITUNEXTC : ru-movie|16+|375|
    ORIGINAL_TITLE : Antigang
    PRODUCER : Henri Debeurme, Тьерри Демишель, Аллан Нибло
    RATING : 6.968
    SYNOPSIS : Серж Бюрен ? легендарный полицейский, возглавляющий группу молодых приспешников с нетипичным подходом. И неважно, используют ли они бейсбольные биты или напрочь забывают об уставе во время показательных арестов, результат налицо. В то же время группировка смертоносных грабителей с легкостью обчищает столичные банки и ювелирные магазины. Бюрен и его подразделение попадают в непростую ситуацию: окажутся ли привычные им методы быстрого реагирования достаточными, для того чтобы остановить преступников?
    WRITER : Франсуа Лубэр, Тристан Шулманн, Джон Ходж
    Video
    ID : 1
    Format : AVC
    Format/Info : Advanced Video Codec
    Format profile : High@L4.1
    Format settings, CABAC : Yes
    Format settings, ReFrames : 12 frames
    Codec ID : V_MPEG4/ISO/AVC
    Duration : 1h 32mn
    Bit rate : 1 792 Kbps
    Width : 1 016 pixels
    Height : 424 pixels
    Display aspect ratio : 2.40: 1
    Frame rate mode : Constant
    Frame rate : 24.000 fps
    Color space : YUV
    Chroma subsampling : 4: 2: 0
    Bit depth : 8 bits
    Scan type : Progressive
    Bits/(Pixel*Frame) : 0.173
    Stream size : 1.13 GiB (78%)
    Writing library : x264 core 148 r2638M 7599210
    Encoding settings : cabac=1/ref=12/deblock=1: -3: -3/analyse=0x3: 0x133/me=umh/subme=11/psy=1/psy_rd=1.00: 0.10/mixed_ref=1/me_range=32/chroma_me=1/trellis=2/8x8dct=1/cqm=0/deadzone=21, 11/fast_pskip=0/chroma_qp_offset=-3/threads=5/lookahead_threads=1/sliced_threads=0/nr=0/decimate=1/interlaced=0/bluray_compat=0/constrained_intra=0/bframes=11/b_pyramid=2/b_adapt=2/b_bias=0/direct=3/weightb=1/open_gop=0/weightp=2/keyint=240/keyint_min=24/scenecut=40/intra_refresh=0/rc=2pass/mbtree=0/bitrate=1792/ratetol=1.0/qcomp=0.60/qpmin=0/qpmax=69/qpstep=4/cplxblur=20.0/qblur=0.5/ip_ratio=1.40/pb_ratio=1.30/aq=1: 1.00
    Language : English
    Default : Yes
    Forced : No
    Color range : Limited
    Color primaries : BT.709
    Transfer characteristics : BT.709
    Matrix coefficients : BT.709
    DURATION : 01: 32: 43.209000000
    Audio
    ID : 2
    Format : AC-3
    Format/Info : Audio Coding 3
    Mode extension : CM (complete main)
    Format settings, Endianness : Big
    Codec ID : A_AC3
    Duration : 1h 32mn
    Bit rate mode : Constant
    Bit rate : 448 Kbps
    Channel(s) : 6 channels
    Channel positions : Front: L C R, Side: L R, LFE
    Sampling rate : 48.0 KHz
    Frame rate : 31.250 fps (1536 spf)
    Bit depth : 32 bits
    Compression mode : Lossy
    Delay relative to video : 27ms
    Stream size : 297 MiB (20%)
    Language : Russian
    Default : Yes
    Forced : No
    DURATION : 01: 32: 43.227000000
    Menu
    00: 00: 00.000 : : Chapter 1
    00: 09: 31.583 : : Chapter 2
    00: 15: 51.333 : : Chapter 3
    00: 22: 25.708 : : Chapter 4
    00: 29: 54.333 : : Chapter 5
    00: 36: 30.208 : : Chapter 6
    00: 43: 29.791 : : Chapter 7
    00: 50: 36.708 : : Chapter 8
    00: 57: 26.500 : : Chapter 9
    01: 04: 12.333 : : Chapter 10
    01: 14: 01.833 : : Chapter 11
    01: 21: 59.625 : : Chapter 12


    Онлайн видео Антиганг


    Размер скачиваемого торрента: 1.45 GB (1558405466 Bytes)

    Антиганг/Antigang (2015) HDRip-AVC | L
    загрузка...
    Рейтинг →
     (голосов: 1, оценка 4/5, голосовать можно 1 раз )

    Другие торренты по теме:

  • Антиганг / Antigang (2015) HDRip от AleksSin | L скачать торрент бесплатно
  • Антиганг / Antigang (2015) BDRip 720p | Чистый звук скачать торрент бесплатно
  • Антиганг / Antigang (2015) BDRip 720p | iTunes скачать торрент бесплатно
  • Антиганг / Antigang (2015) BDRip-AVC от HELLYWOOD | iTunes скачать торрент бесплатно
  • Антиганг / Отряд / Antigang (2015) DVD-9 | D, P скачать торрент бесплатно
  • Антиганг (Отряд) / Antigang / 2015 / ДБ / HDRip (AVC) скачать торрент бесплатно
  • Антиганг (Отряд) / Antigang / 2015 / ДБ, ПМ / BDRip (720p) скачать торрент бесплатно


    • Комментарии (0):

      Информация

      Информация

        Посетители, находящиеся в группе Гости, не могут оставлять комментарии в данной новости.

        ↓ Меню



        ↓ Опрос

        А Вы добавили сайт в закладки?
        Да
        Не


        Top 10 за неделю (Фильмы)