.
Авторизация | Регистрация
Хочешь лучшие торренты? Добавь свой email!
Добавить
» » Спартанец / Spartan (2004) BDRip-AVC от NNM-CLUB | D, P2 торрент скачать бесплатно




    Спартанец / Spartan (2004) BDRip-AVC от NNM-CLUB | D, P2 торрент скачать бесплатно

    Опубликовал: Админ | Дата: 5-01-2016, 05:01 | Просмотров: 81


    Спартанец/Spartan (2004) BDRip

    Создали в: США, Германия/ApolloMedia Distribution, ApolloProMedia GmbH Co. 1. Filmproduktion KG (I), Art Linson Productions
    Категория жанра: Боевик, Триллер, Криминал, Детектив
    Главный режиссер: Дэвид Мэмет
    Актеры: Вэл Килмер, Дерек Люк, Уильям Х. Мэйси, Тиа Тексада, Джереми Кэмпбелл, Боб Дженнингс, Лайонел Марк Смит, Джонни Месснер, Крис ЛаЦентра, Ренато Мано, Марк Фицджералд, Тони Мамет, Кларк Грегг, Рон Батлер, Стивен Калп, Винсент Гуастаферро, Роберт Белла, Лана Билзериан, Аарон Стэнфорд, Энн Морган

    Описание фильма

    Скотт — лучший кандидат для выполнения опаснейшего задания: он должен найти пропавшую девушку Лору Ньютон раньше, чем ее похитители поймут, что у них в руках — не просто студентка Гарвардского университета, а дочь видного американского политика. Скотт идет по следу преступников, однако в срок не укладывается, и пронырливые журналисты оповещают общественность, что студентка, известная всей стране, не появилась на лекции в университете… А через несколько часов теленовости рассказывают о найденной в океане утонувшей Лоре Ньютон…

    Рейтинг MPAA: R(лицам до 17 лет обязательно присутствие взрослого)
    Дата мировой премьеры: 31 января 2004
    Дата премьеры в России: 24 июня 2004, Гемини Киномир
    Дата выхода DVD/Blu-ray релиза: 19 октября 2004, Гемини-Фильм
    Релиз подготовил: FAGOT100(NNM-CLUB)
    Время просмотра: 01: 46: 29
    Качество фильма видео: BDRip-AVC
    Перевод текста: Дублированный, профессиональный (двухголосый, закадровый)
    Язык субтитров: Русский, английский
    Вид субтитров: Вшитые, отключаемые
    Информация о видео: AVC, 1024x428 (2.35: 1), 23.976 fps, 2 472 Kbps (0.235 bit/pixel)
    Информация о звуке #1: AC-3, 48.0 KHz, 6 ch, 448 Kbps, CBR (Russian) - дублированный
    Информация о звуке #2: AC-3, 48.0 KHz, 6 ch, 384 Kbps, CBR (Russian) - двухголосый
    Информация о звуке #3: AC-3, 48.0 KHz, 6 ch, 448 Kbps, CBR (English)
    x264
    x264 info: frame I: 1042 Avg QP: 14.02 size: 61799 PSNR Mean Y: 49.36 U: 54.50 V: 55.63 Avg: 50.33 Global: 49.73
    x264 info: frame P: 34464 Avg QP: 16.41 size: 24282 PSNR Mean Y: 47.49 U: 53.79 V: 54.63 Avg: 48.50 Global: 47.92
    x264 info: frame B: 117678 Avg QP: 18.21 size: 9107 PSNR Mean Y: 46.52 U: 52.75 V: 53.75 Avg: 47.54 Global: 46.99
    x264 info: consecutive B-frames: 2.0% 3.0% 8.7% 25.2% 17.9% 34.4% 4.8% 2.6% 1.5%
    Mediainfo:

    Формат : Matroska
    Версия формата : Version 2
    Размер файла : 2, 76 Гбайт
    Продолжительность : 1 ч. 46 м.
    Общий поток : 3709 Кбит/сек
    Дата кодирования : UTC 2015-12-31 20: 36: 31
    Программа кодирования : mkvmerge v5.3.0 (;I could have danced;) built on Feb 9 2012 10: 38: 07
    Библиотека кодирования : libebml v1.2.3 + libmatroska v1.3.0
    Attachment : Yes
    Видео
    Идентификатор : 1
    Формат : AVC
    Формат/Информация : Advanced Video Codec
    Профиль формата : High@L4.1
    Параметр CABAC формата : Да
    Параметр ReFrames формата : 10 кадров
    Идентификатор кодека : V_MPEG4/ISO/AVC
    Продолжительность : 1 ч. 46 м.
    Битрейт : 2472 Кбит/сек
    Ширина : 1024 пикселя
    Высота : 428 пикселей
    Соотношение сторон : 2, 40: 1
    Режим частоты кадров : Постоянный
    Частота кадров : 23, 976 кадра/сек
    Цветовое пространство : YUV
    Субдискретизация насыщенности : 4: 2: 0
    Битовая глубина : 8 бит
    Тип развёртки : Прогрессивная
    Бит/(Пиксели*Кадры) : 0.235
    Размер потока : 1, 75 Гбайт (63%)
    Библиотека кодирования : x264 core 146 r2538 121396c
    Настройки программы : cabac=1/ref=10/deblock=1: -3: -3/analyse=0x3: 0x133/me=umh/subme=11/psy=1/psy_rd=1.00: 0.10/mixed_ref=1/me_range=32/chroma_me=1/trellis=2/8x8dct=1/cqm=0/deadzone=21, 11/fast_pskip=0/chroma_qp_offset=-3/threads=12/lookahead_threads=2/sliced_threads=0/nr=0/decimate=0/interlaced=0/bluray_compat=0/constrained_intra=0/bframes=8/b_pyramid=2/b_adapt=2/b_bias=0/direct=3/weightb=1/open_gop=0/weightp=2/keyint=240/keyint_min=23/scenecut=40/intra_refresh=0/rc=2pass/mbtree=0/bitrate=2472/ratetol=1.0/qcomp=0.60/qpmin=0/qpmax=69/qpstep=4/cplxblur=20.0/qblur=0.5/ip_ratio=1.40/pb_ratio=1.30/aq=1: 0.70
    Default : Да
    Forced : Нет
    Аудио #1
    Идентификатор : 2
    Формат : AC-3
    Формат/Информация : Audio Coding 3
    Расширение режима : CM (complete main)
    Параметр Endianness формата : Big
    Идентификатор кодека : A_AC3
    Продолжительность : 1 ч. 46 м.
    Вид битрейта : Постоянный
    Битрейт : 448 Кбит/сек
    Каналы : 6 каналов
    Расположение каналов : Front: L C R, Side: L R, LFE
    Частота : 48, 0 КГц
    Битовая глубина : 16 бит
    Метод сжатия : С потерями
    Задержка видео : 16 мс.
    Размер потока : 341 Мбайт (12%)
    Заголовок : Дубляж
    Язык : Russian
    Default : Да
    Forced : Нет
    Аудио #2
    Идентификатор : 3
    Формат : AC-3
    Формат/Информация : Audio Coding 3
    Расширение режима : CM (complete main)
    Параметр Endianness формата : Big
    Идентификатор кодека : A_AC3
    Продолжительность : 1 ч. 46 м.
    Вид битрейта : Постоянный
    Битрейт : 384 Кбит/сек
    Каналы : 6 каналов
    Расположение каналов : Front: L C R, Side: L R, LFE
    Частота : 48, 0 КГц
    Битовая глубина : 16 бит
    Метод сжатия : С потерями
    Задержка видео : 16 мс.
    Размер потока : 293 Мбайт (10%)
    Заголовок : Многоголосый
    Язык : Russian
    Default : Нет
    Forced : Нет
    Аудио #3
    Идентификатор : 4
    Формат : AC-3
    Формат/Информация : Audio Coding 3
    Расширение режима : CM (complete main)
    Параметр Endianness формата : Big
    Идентификатор кодека : A_AC3
    Продолжительность : 1 ч. 46 м.
    Вид битрейта : Постоянный
    Битрейт : 448 Кбит/сек
    Каналы : 6 каналов
    Расположение каналов : Front: L C R, Side: L R, LFE
    Частота : 48, 0 КГц
    Битовая глубина : 16 бит
    Метод сжатия : С потерями
    Задержка видео : 16 мс.
    Размер потока : 341 Мбайт (12%)
    Язык : English
    Default : Нет
    Forced : Нет
    Текст #1
    Идентификатор : 5
    Формат : UTF-8
    Идентификатор кодека : S_TEXT/UTF8
    Идентификатор кодека/Информация : UTF-8 Plain Text
    Язык : English
    Default : Нет
    Forced : Нет
    Текст #2
    Идентификатор : 6
    Формат : UTF-8
    Идентификатор кодека : S_TEXT/UTF8
    Идентификатор кодека/Информация : UTF-8 Plain Text
    Язык : Russian
    Default : Нет
    Forced : Нет
    Меню
    00: 00: 00.000 : en: 00: 00: 00.000
    00: 09: 27.442 : en: 00: 09: 27.442
    00: 20: 08.624 : en: 00: 20: 08.624
    00: 29: 48.203 : en: 00: 29: 48.203
    00: 37: 38.339 : en: 00: 37: 38.339
    00: 44: 09.647 : en: 00: 44: 09.647
    00: 55: 52.724 : en: 00: 55: 52.724
    01: 04: 50.845 : en: 01: 04: 50.845
    01: 11: 01.507 : en: 01: 11: 01.507
    01: 18: 24.783 : en: 01: 18: 24.783
    01: 27: 23.947 : en: 01: 27: 23.947
    01: 38: 14.305 : en: 01: 38: 14.305

    Скриншоты:


    Онлайн видео Спартанец


    Размер скачиваемого торрента: 2.76 GB (2962795619 Bytes)

    Спартанец/Spartan (2004) BDRip-AVC от NNM-CLUB | D, P2
    загрузка...
    Рейтинг →
     (голосов: 1, оценка 5/5, голосовать можно 1 раз )

    Другие торренты по теме:

  • Виктор Поротников – Последний спартанец. Разгромить Ксеркса! (2016) MP3


    • Комментарии (0):

      Информация

      Информация

        Посетители, находящиеся в группе Гости, не могут оставлять комментарии в данной новости.

        ↓ Меню



        ↓ Опрос

        А Вы добавили сайт в закладки?
        Да
        Не


        Top 10 за месяц (Фильмы)