.
Авторизация | Регистрация
» » Некуда бежать / Nowhere to Run (1993) BDRip 720p скачать торрент бесплатно




    Некуда бежать / Nowhere to Run (1993) BDRip 720p скачать торрент бесплатно

    Опубликовал: Админ | Дата: 6-01-2016, 05:01 | Просмотров: 147



    Русское название: Некуда бежать
    Русское название в мировом прокате: Nowhere to Run
    Создали в: 1993
    Снималось в: США
    Категория жанра: боевик, триллер, драма, мелодрама, криминал
    Время просмотра: 01: 34: 19
    Перевод текста: дублированный, профессиональный многоголосый, авторский
    Главный режиссёр: Роберт Хармон

    Актеры
    Жан-Клод Ван Дамм, Розанна Аркетт, Киран Калкин, Тед Левайн, Тиффани Тоубмэн, Эдвард Блэтчфорд, Стефен Бриджуотер, Кристи Боткин, Луана Андерс, Джон Рубиноу, Роберт Аписа, Джофри С. Браун, Тони Брубэйкер, Рон Ховард Джордж, Войо Горич, Джек Лукарелли, Питер Малота, Фрэнк Орсатти, Мэнни Перри, Томас Розалес мл., Рон Стейн, Свен-Оле Торсен, Джэк Вербойс, Чак Зито, Джеймс Грин, Стивен Чэмберс, Энтони Старк, Джосс Экленд, Аллан Граф, Кевин Пейдж, Элби Зелцник, Энди Гилл, Джек Гилл, Джефф Рэмси
    Описание: Сэм, беглый заключённый, находит кров на уединённой ферме, где живёт молодая женщина с двумя детьми. С трудом сбежав от полиции, он - уже на пути к свободе, но безопасность тех, кто помог ему в трудную минуту, заставляет его остаться на ферме. Беспомощной женщине и двум её детям угрожает опасность - подкупленный судья и бандиты хотят отобрать у них дом. Сэм встаёт на защиту семьи. В трудной схватке он один противостоит нескольким головорезам. Только так он может заслужить любовь и доверие тех, кто стал для него самыми дорогими людьми на свете...

    Качество фильма: BDRip 720p Сравнение с исходником
    Тип видео: MKV
    Информация о видео: MPEG-4 AVC, 5186 Kбит/с, 1280x694, 23, 976 кадра/с
    Информация о звуке 1: русский, AC3, 384 kbps, 6 ch, 48 kHz дублированный
    Информация о звуке 2: русский, AC3, 192 kbps, 2 ch, 48 kHz профессиональный многоголосый, OPT
    Информация о звуке 3: русский, AC3, 192 kbps, 2 ch, 48 kHz авторский, Леонид Володарский
    Информация о звуке 4: русский, AC3, 192 kbps, 2 ch, 48 kHz авторский, Юрий Живов
    Внешние файлы
    Информация о звуке: русский, AC3, 192 kbps, 2 ch, 48 kHz профессиональный многоголосый
    Информация о звуке: русский, AC3, 192 kbps, 2 ch, 48 kHz авторский, Василий Горчаков
    Информация о звуке: русский, AC3, 192 kbps, 2 ch, 48 kHz авторский, Александр Готлиб
    Информация о звуке: русский, AC3, 192 kbps, 2 ch, 48 kHz авторский, Сергей Кузнецов
    Информация о звуке: русский, AC3, 192 kbps, 2 ch, 48 kHz авторский, Максим Латышев
    Информация о звуке: английский, AC3, 192 kbps, 2 ch, 48 kHz оригинал
    Субтитры: русские
    Субтитры: английские
    Инфо-файл
    Общее
    Полное имя : D: VideoНекуда бежать.1993.BDRip.720pНекуда бежать.1993.AVO.rus.А.Готлиб.ac3
    Формат : AC-3
    Формат/Информация : Audio Coding 3
    Размер файла : 130 Мбайт
    Продолжительность : 1 ч. 34 м.
    Режим общего битрейта : Постоянный
    Общий поток : 192 Кбит/сек
    Аудио
    Формат : AC-3
    Формат/Информация : Audio Coding 3
    Расширение режима : CM (complete main)
    Параметр Endianness формата : Big
    Продолжительность : 1 ч. 34 м.
    Вид битрейта : Постоянный
    Битрейт : 192 Кбит/сек
    Каналы : 2 канала
    Расположение каналов : Front: L R
    Частота : 48, 0 КГц
    Частота кадров : 31, 250 кадров/сек (1536 spf)
    Метод сжатия : С потерями
    Размер потока : 130 Мбайт (100%)
    Общее
    Полное имя : D: VideoНекуда бежать.1993.BDRip.720pНекуда бежать.1993.AVO.rus.В.Горчаков.ac3
    Формат : AC-3
    Формат/Информация : Audio Coding 3
    Размер файла : 130 Мбайт
    Продолжительность : 1 ч. 34 м.
    Режим общего битрейта : Постоянный
    Общий поток : 192 Кбит/сек
    Аудио
    Формат : AC-3
    Формат/Информация : Audio Coding 3
    Расширение режима : CM (complete main)
    Параметр Endianness формата : Big
    Продолжительность : 1 ч. 34 м.
    Вид битрейта : Постоянный
    Битрейт : 192 Кбит/сек
    Каналы : 2 канала
    Расположение каналов : Front: L R
    Частота : 48, 0 КГц
    Частота кадров : 31, 250 кадров/сек (1536 spf)
    Метод сжатия : С потерями
    Размер потока : 130 Мбайт (100%)
    Общее
    Полное имя : D: VideoНекуда бежать.1993.BDRip.720pНекуда бежать.1993.AVO.rus.М.Латышев.ac3
    Формат : AC-3
    Формат/Информация : Audio Coding 3
    Размер файла : 130 Мбайт
    Продолжительность : 1 ч. 34 м.
    Режим общего битрейта : Постоянный
    Общий поток : 192 Кбит/сек
    Аудио
    Формат : AC-3
    Формат/Информация : Audio Coding 3
    Расширение режима : CM (complete main)
    Параметр Endianness формата : Big
    Продолжительность : 1 ч. 34 м.
    Вид битрейта : Постоянный
    Битрейт : 192 Кбит/сек
    Каналы : 2 канала
    Расположение каналов : Front: L R
    Частота : 48, 0 КГц
    Частота кадров : 31, 250 кадров/сек (1536 spf)
    Метод сжатия : С потерями
    Размер потока : 130 Мбайт (100%)
    Общее
    Полное имя : D: VideoНекуда бежать.1993.BDRip.720pНекуда бежать.1993.AVO.rus.С.Кузнецов.ac3
    Формат : AC-3
    Формат/Информация : Audio Coding 3
    Размер файла : 130 Мбайт
    Продолжительность : 1 ч. 34 м.
    Режим общего битрейта : Постоянный
    Общий поток : 192 Кбит/сек
    Аудио
    Формат : AC-3
    Формат/Информация : Audio Coding 3
    Расширение режима : CM (complete main)
    Параметр Endianness формата : Big
    Продолжительность : 1 ч. 34 м.
    Вид битрейта : Постоянный
    Битрейт : 192 Кбит/сек
    Каналы : 2 канала
    Расположение каналов : Front: L R
    Частота : 48, 0 КГц
    Частота кадров : 31, 250 кадров/сек (1536 spf)
    Метод сжатия : С потерями
    Размер потока : 130 Мбайт (100%)
    Общее
    Уникальный идентификатор : 183106139306504111452471032349959639438 (0x89C0F5ACE0AE16C68CB6B0D354FFD18E)
    Полное имя : D: VideoНекуда бежать.1993.BDRip.720pНекуда бежать.1993.BDRip.720p.mkv
    Формат : Matroska
    Версия формата : Version 4/Version 2
    Размер файла : 4, 05 Гбайт
    Продолжительность : 1 ч. 34 м.
    Общий поток : 6148 Кбит/сек
    Дата кодирования : UTC 2016-01-05 06: 54: 20
    Программа кодирования : mkvmerge v8.2.0 (;World of Adventure;) 64bit
    Библиотека кодирования : libebml v1.3.1 + libmatroska v1.4.2
    Видео
    Идентификатор : 1
    Формат : AVC
    Формат/Информация : Advanced Video Codec
    Профиль формата : High@L4.1
    Параметр CABAC формата : Да
    Параметр ReFrames формата : 9 кадров
    Идентификатор кодека : V_MPEG4/ISO/AVC
    Продолжительность : 1 ч. 34 м.
    Битрейт : 5186 Кбит/сек
    Ширина : 1280 пикселей
    Высота : 694 пикселя
    Соотношение сторон : 1, 85: 1
    Режим частоты кадров : Постоянный
    Частота кадров : 23, 976 (24000/1001) кадра/сек
    Цветовое пространство : YUV
    Субдискретизация насыщенности : 4: 2: 0
    Битовая глубина : 8 бит
    Тип развёртки : Прогрессивная
    Бит/(Пиксели*Кадры) : 0.243
    Размер потока : 3, 42 Гбайт (84%)
    Библиотека кодирования : x264 core 146 r2538 121396c
    Залил: msltel

    Онлайн видео Некуда бежать


    Размер скачиваемого торрента: 4.81 GB (5164878347 Bytes)


    Некуда бежать/Nowhere to Run (1993) BDRip 720p
    загрузка...
    Рейтинг →
     (голосов: 1, оценка 3/5, голосовать можно 1 раз )

    Другие торренты по теме:



      Комментарии (0):

      Информация

      Информация

        Посетители, находящиеся в группе Гости, не могут оставлять комментарии в данной новости.

        ↓ Меню



        ↓ Опрос

        А Вы добавили сайт в закладки?
        Да
        Не


        Top 10 за неделю (Фильмы)