.
Авторизация | Регистрация
Хочешь лучшие торренты? Добавь свой email!
Добавить




Чирак / Chi-Raq (2015) BDRip 720p | L2 торрент скачать бесплатно

Опубликовал: Админ | Дата: 7-01-2016, 05:01 | Просмотров: 410



Детально о кино
Русское название: Чирак
Русское название в мировом прокате: Chi-Raq
Создали в: 2015
Категория жанра: драма
Главный режиссер: Спайк Ли

Актеры
Ник Кэннон, Тейона Паррис, Уэсли Снайпс, Анджела Бассетт, Сэмюэл Л. Джексон, Джон Кьюсак, Дженнифер Хадсон, Дэвид Патрик Келли, Д.Б. Суини, Дэйв Шаппелл

Сюжет фильма
Фильм сосредоточен на растущем насилии в Чикаго.


Снималось в: США/40 Acres A Mule Filmworks, Amazon Studios
Время просмотра: 02: 06: 51
Тип перевода: Любительское (двухголосое) Parovoz Production
Файл
Тип видео: MKV
Качество фильма: BDRip 720p
Информация о видео: MPEG-4 AVC, 4876 kb/s, 1280x534
Информация о звуке: Russian: AC3, 192 kb/s (2 ch)/English: DTS, 1510 kb/s (6 ch)
Субтитры: English, Spanish
MI

Format : Matroska
Format version : Version 2
File size : 5.88 GiB
Duration : 2h 6mn
Overall bit rate : 6 632 Kbps
Encoded date : UTC 2016-01-06 20: 24: 53
Writing application : mkvmerge v7.8.0 (;River Man;) 32bit built on Apr 3 2015 12: 11: 22
Writing library : libebml v1.3.1 + libmatroska v1.4.2
Video
ID : 1
Format : AVC
Format/Info : Advanced Video Codec
Format profile : High@L4.1
Format settings, CABAC : Yes
Format settings, ReFrames : 12 frames
Codec ID : V_MPEG4/ISO/AVC
Duration : 2h 6mn
Bit rate : 4 876 Kbps
Width : 1 280 pixels
Height : 534 pixels
Display aspect ratio : 2.40: 1
Frame rate mode : Constant
Frame rate : 23.976 fps
Color space : YUV
Chroma subsampling : 4: 2: 0
Bit depth : 8 bits
Scan type : Progressive
Bits/(Pixel*Frame) : 0.298
Stream size : 4.25 GiB (72%)
Writing library : x264 core 142 r2431+42 c69a006 tMod 8-bit@all X86_64
Encoding settings : cabac=1/ref=12/deblock=1: -3: -3/analyse=0x3: 0x133/me=umh/subme=10/psy=1/fade_compensate=0.00/psy_rd=1.05: 0.00/mixed_ref=1/me_range=24/chroma_me=1/trellis=2/8x8dct=1/cqm=0/deadzone=21, 11/fast_pskip=0/chroma_qp_offset=-2/threads=16/lookahead_threads=2/sliced_threads=0/nr=0/decimate=0/interlaced=0/bluray_compat=0/constrained_intra=0/fgo=0/bframes=8/b_pyramid=2/b_adapt=2/b_bias=0/direct=3/weightb=1/open_gop=0/weightp=2/keyint=240/keyint_min=23/scenecut=40/intra_refresh=0/rc_lookahead=120/rc=2pass/mbtree=0/bitrate=4876/ratetol=1.0/qcomp=0.68/qpmin=0: 0: 0/qpmax=69: 69: 69/qpstep=4/cplxblur=20.0/qblur=0.5/vbv_maxrate=40000/vbv_bufsize=30000/nal_hrd=none/filler=0/ip_ratio=1.20/pb_ratio=1.30/aq=2: 0.78/aq-sensitivity=10.00/aq-factor=1.00: 1.00: 1.00/aq2=0/aq3=0
Language : English
Default : Yes
Forced : No
Color range : Limited
Color primaries : BT.709
Transfer characteristics : BT.709
Matrix coefficients : BT.709
Audio #1
ID : 2
Format : AC-3
Format/Info : Audio Coding 3
Mode extension : CM (complete main)
Format settings, Endianness : Big
Codec ID : A_AC3
Duration : 2h 6mn
Bit rate mode : Constant
Bit rate : 192 Kbps
Channel(s) : 2 channels
Channel positions : Front: L R
Sampling rate : 48.0 KHz
Bit depth : 16 bits
Compression mode : Lossy
Stream size : 174 MiB (3%)
Language : Russian
Default : Yes
Forced : No
Audio #2
ID : 3
Format : DTS
Format/Info : Digital Theater Systems
Mode : 16
Format settings, Endianness : Big
Codec ID : A_DTS
Duration : 2h 6mn
Bit rate mode : Constant
Bit rate : 1 509 Kbps
Channel(s) : 6 channels
Channel positions : Front: L C R, Side: L R, LFE
Sampling rate : 48.0 KHz
Bit depth : 24 bits
Compression mode : Lossy
Stream size : 1.34 GiB (23%)
Language : English
Default : No
Forced : No
Text #1
ID : 4
Format : PGS
Muxing mode : zlib
Codec ID : S_HDMV/PGS
Codec ID/Info : Picture based subtitle format used on BDs/HD-DVDs
Language : English
Default : No
Forced : No
Text #2
ID : 5
Format : PGS
Muxing mode : zlib
Codec ID : S_HDMV/PGS
Codec ID/Info : Picture based subtitle format used on BDs/HD-DVDs
Language : English
Default : No
Forced : No
Text #3
ID : 6
Format : PGS
Muxing mode : zlib
Codec ID : S_HDMV/PGS
Codec ID/Info : Picture based subtitle format used on BDs/HD-DVDs
Language : Spanish
Default : No
Forced : No
Menu
00: 00: 00.000 : en: 00: 00: 00.000
00: 10: 01.851 : en: 00: 10: 01.851
00: 18: 54.050 : en: 00: 18: 54.050
00: 25: 03.919 : en: 00: 25: 03.919
00: 33: 15.869 : en: 00: 33: 15.869
00: 40: 45.485 : en: 00: 40: 45.485
00: 50: 01.707 : en: 00: 50: 01.707
00: 59: 50.378 : en: 00: 59: 50.378
01: 08: 11.796 : en: 01: 08: 11.796
01: 14: 49.694 : en: 01: 14: 49.694
01: 21: 30.094 : en: 01: 21: 30.094
01: 27: 20.485 : en: 01: 27: 20.485
01: 35: 51.996 : en: 01: 35: 51.996
01: 41: 06.143 : en: 01: 41: 06.143
01: 49: 22.681 : en: 01: 49: 22.681
01: 57: 32.462 : en: 01: 57: 32.462
Скриншоты




Размер скачиваемого торрента: 5.88 GB (6308925440 Bytes)

Чирак/Chi-Raq (2015) BDRip 720p | L2
загрузка...
Рейтинг →
 (голосов: 1, оценка 5/5, голосовать можно 1 раз )

Другие торренты по теме:



    Комментарии (0):

    Информация

    Информация

      Посетители, находящиеся в группе Гости, не могут оставлять комментарии в данной новости.

      ↓ Меню



      ↓ Опрос

      А Вы добавили сайт в закладки?
      Да
      Не


      Top 10 за месяц (Фильмы)