.
Авторизация | Регистрация
Хочешь лучшие торренты? Добавь свой email!
Добавить
» » Сельский врач (1952) DVDRip от New-Team торрент скачать бесплатно




    Сельский врач (1952) DVDRip от New-Team торрент скачать бесплатно

    Опубликовал: Админ | Дата: 11-01-2016, 05:00 | Просмотров: 132



    Снималось в: СССР
    Создали в: Киностудия им. Горького
    Категория жанра: драма
    Создали в: 1952
    Время просмотра: 01: 46: 32
    Перевод текста: Не требуется
    Субтитры подготовлены: нет
    Оригинальная аудиодорожка: русский
    Главный режиссер: Сергей Герасимов

    Актеры

    Тамара Макарова, Григорий Белов, Всеволод Санаев, Василий Капустин, Иван Кузнецов, Анатолий Дудоров, Александр Смирнов, Виктор Ключарев, Александра Панова, Инна Макарова, Олеся Иванова, Клавдия Хабарова, Александра Харитонова, Владимир Гуляев, Николай Сморчков...
    Полный список актёров
    Описание:
    Выпускница медицинского института Татьяна Казакова приезжает по распределению в село Горячие Ключи и намерена доказать свою профпригодность маленькому (село то — в тридцати километрах от райцентра), но достаточно профессиональному коллективу больницы, которую возглавляет 70-летний доктор Арсеньев, острый ум и чрезмерная недоверчивость которого становятся основной причиной недолгого раздора между коллегами.



    Источник: DVD9 R5
    Качество фильма видео: DVDRip
    Тип видео видео: AVI
    Информация о видео: 688x512 (4: 3), 25 fps, XviD ~ 1757 kbps avg, 0.199 bit/pixel
    Информация о звуке: 48 kHz, Dolby Digital AC3 2.0, 192 kbps
    Раздача от:
    MediaInfo

    Общее
    Полное имя : E: Tracker2015Сельский врачSelskiy.vrach.1952.DVDRip_New-team_by_AVP_Studio.avi
    Формат : AVI
    Формат/Информация : Audio Video Interleave
    Размер файла : 1, 46 Гбайт
    Продолжительность : 1 ч. 46 м.
    Общий поток : 1959 Кбит/сек
    Программа кодирования : VirtualDubMod 1.5.10.3 | www.virtualdub-fr.org || (build 2550/release)
    Библиотека кодирования : VirtualDubMod build 2550/release
    Видео
    Идентификатор : 0
    Формат : MPEG-4 Visual
    Профиль формата : Advanced Simple@L5
    Параметр BVOP формата : 1
    Параметр QPel формата : Нет
    Параметр GMC формата : Без точки перехода
    Параметр матрицы формата : Выборочная
    Идентификатор кодека : XVID
    Идентификатор кодека/Подсказка : XviD
    Продолжительность : 1 ч. 46 м.
    Битрейт : 1757 Кбит/сек
    Ширина : 688 пикселей
    Высота : 512 пикселей
    Соотношение сторон : 4: 3
    Частота кадров : 25, 000 кадров/сек
    Цветовое пространство : YUV
    Субдискретизация насыщенности : 4: 2: 0
    Битовая глубина : 8 бит
    Тип развёртки : Прогрессивная
    Метод сжатия : С потерями
    Бит/(Пиксели*Кадры) : 0.199
    Размер потока : 1, 31 Гбайт (90%)
    Библиотека кодирования : XviD 1.2.1 (UTC 2008-12-04)
    Аудио
    Идентификатор : 1
    Формат : AC-3
    Формат/Информация : Audio Coding 3
    Расширение режима : CM (complete main)
    Параметр Endianness формата : Big
    Идентификатор кодека : 2000
    Продолжительность : 1 ч. 46 м.
    Вид битрейта : Постоянный
    Битрейт : 192 Кбит/сек
    Каналы : 2 канала
    Расположение каналов : Front: L R
    Частота : 48, 0 КГц
    Метод сжатия : С потерями
    Размер потока : 146 Мбайт (10%)
    Выравнивание : Разделение по промежуткам
    Продолжительность промежутка : 40 мс. (1, 00 видеокадр)
    Время предзагрузки промежутка : 500 мс

    Скриншоты



    Залил: AVPStudio

    Онлайн видео Сельский врач (1952) DVDRip от New


    Размер скачиваемого торрента: 1.46 GB (1564913664 Bytes)

    Сельский врач (1952) DVDRip от New-Team
    загрузка...
    Рейтинг →
     (голосов: 1, оценка 3/5, голосовать можно 1 раз )

    Другие торренты по теме:



      Комментарии (0):

      Информация

      Информация

        Посетители, находящиеся в группе Гости, не могут оставлять комментарии в данной новости.

        ↓ Меню



        ↓ Опрос

        А Вы добавили сайт в закладки?
        Да
        Не


        Top 10 за месяц (Фильмы)