.
Авторизация | Регистрация




Разлом (1952) DVDRip от New-Team скачать торрент бесплатно

Опубликовал: Админ | Дата: 12-01-2016, 05:01 | Просмотров: 119



Снималось в: СССР
Создали в: Ленфильм
Категория жанра: история
Создали в: 1952
Время просмотра: 01: 18: 33
Перевод текста: Не требуется
Субтитры подготовлены: нет
Оригинальная аудиодорожка: русский
Главный режиссер: Юрий Музыкант, Павел Боголюбов

Актеры

Виталий Полицеймако, Василий Софронов, Елена Грановская, Валентина Кибардина, Нина Ольхина, Николай Корн, Владислав Стржельчик, Сергей Карнович-Валуа, Александр Лариков, Георгий Семёнов, Борис Васильев (II), Виталий Иллич, Михаил Иванов, Евгений Иванов, Павел Колобов, А. Москвин, Дмитрий Прощалыгин, Ефим Копелян, Александр Чепурнов, Николай Семилетов, Иван Ефремов, Александр Соколов, Иван Пальму...
Полный список актёров
Описание:
Фильм-спектакль по одноименной пьесе Бориса Лавренева.
Постановка Ленинградского БДТ им. М.Горького. Режиссеры спектакля - Александр Соколов и Иван Зонне.
Кронштадт 1917 года. Матросы революционного крейсера Заря во главе с большевиком Артемом Годуном (Виталий Полицеймако) готовятся к всеобщему вооруженному восстанию. Команда корабля отказывается подчиняться Временному правительству и командир крейсера Берсенев переходит на сторону матросов. По-разному воспринимают это решение все члены его семьи...



Источник: DVD5 R5
Качество фильма видео: DVDRip
Тип видео видео: AVI
Информация о видео: 640x480 (4: 3), 25 fps, XviD ~ 1188 kbps avg, 0.155 bit/pixel
Информация о звуке: 48 kHz, MP3 2.0, 128 kbps
Раздача от:
MediaInfo

Общее
Полное имя : Razlom.1952.DVDRip-745_New-team_by_AVP_Studio.avi
Формат : AVI
Формат/Информация : Audio Video Interleave
Размер файла : 744 Мбайт
Продолжительность : 1 ч. 18 м.
Общий поток : 1325 Кбит/сек
Программа кодирования : VirtualDubMod 1.5.10.3 | www.virtualdub-fr.org || (build 2550/release)
Библиотека кодирования : VirtualDubMod build 2550/release
Видео
Идентификатор : 0
Формат : MPEG-4 Visual
Профиль формата : Advanced Simple@L5
Параметр BVOP формата : 1
Параметр QPel формата : Нет
Параметр GMC формата : Без точки перехода
Параметр матрицы формата : Выборочная
Идентификатор кодека : XVID
Идентификатор кодека/Подсказка : XviD
Продолжительность : 1 ч. 18 м.
Битрейт : 1188 Кбит/сек
Ширина : 640 пикселей
Высота : 480 пикселей
Соотношение сторон : 4: 3
Частота кадров : 25, 000 кадров/сек
Цветовое пространство : YUV
Субдискретизация насыщенности : 4: 2: 0
Битовая глубина : 8 бит
Тип развёртки : Прогрессивная
Метод сжатия : С потерями
Бит/(Пиксели*Кадры) : 0.155
Размер потока : 667 Мбайт (90%)
Библиотека кодирования : XviD 1.2.1 (UTC 2008-12-04)
Аудио
Идентификатор : 1
Формат : MPEG Audio
Версия формата : Version 1
Профиль формата : Layer 3
Идентификатор кодека : 55
Идентификатор кодека/Подсказка : MP3
Продолжительность : 1 ч. 18 м.
Вид битрейта : Постоянный
Битрейт : 128 Кбит/сек
Каналы : 2 канала
Частота : 48, 0 КГц
Метод сжатия : С потерями
Размер потока : 71, 9 Мбайт (10%)
Выравнивание : Соединение по промежуткам
Продолжительность промежутка : 40 мс. (1, 00 видеокадр)
Время предзагрузки промежутка : 504 мс.
Библиотека кодирования : LAME3.99r
Залил: AVPStudio

Онлайн видео Разлом (1952) DVDRip от New


Размер скачиваемого торрента: 744.48 MB (780644352 Bytes)


Разлом (1952) DVDRip от New-Team
загрузка...
Рейтинг →
 (голосов: 1, оценка 5/5, голосовать можно 1 раз )

Другие торренты по теме:

  • Разлом / 1952 / РУ / DVDRip (AVC) скачать торрент бесплатно
  • Разлом (1952) DVDRip от New-Team скачать торрент бесплатно


    • Комментарии (0):

      Информация

      Информация

        Посетители, находящиеся в группе Гости, не могут оставлять комментарии в данной новости.

        ↓ Меню



        ↓ Опрос

        А Вы добавили сайт в закладки?
        Да
        Не


        Top 10 за неделю (Фильмы)