.
Авторизация | Регистрация
Хочешь лучшие торренты? Добавь свой email!
Добавить
» » Фея / La fe (2011) HDRip от Шкипер торрент скачать бесплатно




    Фея / La fe (2011) HDRip от Шкипер торрент скачать бесплатно

    Опубликовал: Админ | Дата: 12-01-2016, 05:01 | Просмотров: 105



    Детально о кино
    Русское название: Фея
    Русское название в мировом прокате: La f?e
    Создали в: 2011
    Категория жанра: Драма, комедия
    Главный режиссер: Доминик Абель, Фиона Гордон, Брюно Роми

    Актеры
    Доминик Абель, Фиона Гордон, Филипп Мартц, Бруно Роми, Владимир Зонго, Дестине М’Бикула Майемба, Вилсон Гома, Дидье Армбрустер, Анаис Лемаршан, Ленни Мартц

    Сюжет фильма

    Парень по имени Дом работает в ночные смены в маленьком отеле возле индустриального морского порта Гавра. Однажды ночью в гостиницу приходит женщина без багажа и обуви. Ее зовут Фиона. Она представляется Дому как фея и позволяет ему загадать три желания. Фиона совершает два из них, после чего странным способом исчезает. Влюбленный в нее Дом ищет ее повсюду...

    Снималось в: Франция, Бельгия
    Киностудия: After Dark Films
    Время просмотра: 01: 33: 56
    Перевод текста: Профессиональный двухголосый закадровый |R5, CP-Digital|
    Файл
    Кодек для видео: XviD
    Качество фильма: HDRip
    Информация о видео: 624x352 (1.77: 1), 24.000 fps, XviD build 73 ~976 kbps avg, 0.19 bit/pixel
    Информация о звуке: 48 kHz, MPEG Layer 3, 2 ch, ~128.00 kbps avg
    Субтитры: Отсутствует
    Семпл
    MI
    Общее
    Полное имя : D: Изготовление рипаThe.Fairy.2011.HDrip by shkiper.avi
    Формат : AVI
    Формат/Информация : Audio Video Interleave
    Размер файла : 749 Мбайт
    Продолжительность : 1 ч. 33 м.
    Общий поток : 1114 Кбит/сек
    Программа кодирования : VirtualDubMod 1.5.10.3 | www.virtualdub-fr.org || (build 2550/release)
    Библиотека кодирования : VirtualDubMod build 2550/release
    Видео
    Идентификатор : 0
    Формат : MPEG-4 Visual
    Профиль формата : Advanced Simple@L5
    Параметр BVOP формата : 1
    Параметр QPel формата : Нет
    Параметр GMC формата : Без точки перехода
    Параметр матрицы формата : Выборочная
    Идентификатор кодека : XVID
    Идентификатор кодека/Подсказка : XviD
    Продолжительность : 1 ч. 33 м.
    Битрейт : 977 Кбит/сек
    Ширина : 624 пикселя
    Высота : 352 пикселя
    Соотношение сторон : 16: 9
    Частота кадров : 24, 000 кадра/сек
    Цветовое пространство : YUV
    Субдискретизация насыщенности : 4: 2: 0
    Битовая глубина : 8 бит
    Тип развёртки : Прогрессивная
    Метод сжатия : С потерями
    Бит/(Пиксели*Кадры) : 0.185
    Размер потока : 656 Мбайт (88%)
    Библиотека кодирования : XviD 73
    Аудио
    Идентификатор : 1
    Формат : MPEG Audio
    Версия формата : Version 1
    Профиль формата : Layer 3
    Режим : Joint stereo
    Расширение режима : MS Stereo
    Идентификатор кодека : 55
    Идентификатор кодека/Подсказка : MP3
    Продолжительность : 1 ч. 33 м.
    Вид битрейта : Постоянный
    Битрейт : 128 Кбит/сек
    Каналы : 2 канала
    Частота : 48, 0 КГц
    Метод сжатия : С потерями
    Размер потока : 86, 0 Мбайт (11%)
    Выравнивание : Соединение по промежуткам
    Продолжительность промежутка : 42 мс. (1, 00 видеокадр)
    Время предзагрузки промежутка : 504 мс.
    Библиотека кодирования : LAME3.99r
    Залил: surikmas
    Размер скачиваемого торрента: 748.64 MB (785008640 Bytes)


    Фея/La fe (2011) HDRip от Шкипер
    загрузка...
    Рейтинг →
     (голосов: 1, оценка 3/5, голосовать можно 1 раз )

    Другие торренты по теме:



      Комментарии (0):

      Информация

      Информация

        Посетители, находящиеся в группе Гости, не могут оставлять комментарии в данной новости.

        ↓ Меню



        ↓ Опрос

        А Вы добавили сайт в закладки?
        Да
        Не


        Top 10 за месяц (Фильмы)