.
Авторизация | Регистрация
» » Элементарно / Elementary (2015) WEB-DLRip | КПК | LostFilm скачать торрент бесплатно




    Элементарно / Elementary (2015) WEB-DLRip | КПК | LostFilm скачать торрент бесплатно

    Опубликовал: Админ | Дата: 12-01-2016, 10:34 | Просмотров: 166


    • Элементарно/Elementary •
    ? Снималось в: США
    ? Создали в: CBS Television Studios, Hill of Beans Productions, Timberman-Beverly Productions
    ? Создали в: 2015
    ? Категория жанра: драма, криминал, детектив
    ? Главный режиссёр: Джон Полсон, Гай Ферленд, Сет Манн
    ?
    Актеры
    Джонни Ли Миллер, Люси Лью, Эйдан Куинн, Джон Майкл Хилл, Офелия Ловибонд, Джордан Гелбер, Рис Иванс, Ато Эссонда, Натали Дормер, Раза Джеффри и др.

    ? Перевод текста: Профессиональный (многоголосый, закадровый от Lostfilm)


    Описание фильма
    Британский сыщик Шерлок Холмс — бывший наркоман, который был отправлен в Нью-Йорк на лечение в реабилитационный центр, а по завершении лечения остался в Бруклине как консультант нью-йоркской полиции. В расследованиях ему помогает его компаньон-наблюдатель доктор Джоан Ватсон, нанятая его отцом.



    ? Качество фильма: WEB-DLRip
    ? Время просмотра: по ~ 00: 43: 00

    ? Тип видео: MP4
    ? Информация о видео кодек: H.264
    ? Информация о звуке кодек: AAC
    ? Свойства видео: 640x360 (16: 9), 23.976 fps, 600 Kbps (0.109 bit/pixel)
    ? Свойства аудио: 48.0 KHz, 2 ch, 128 kbps
    MediaInfo
    General
    Complete name : Elementary.S04E01.rus.LostFilm.mp4
    Format : MPEG-4
    Format profile : Base Media
    Codec ID : isom
    File size : 227 MiB
    Duration : 43mn 24s
    Overall bit rate mode : Variable
    Overall bit rate : 732 Kbps
    Encoded date : UTC 2015-11-16 10: 41: 47
    Tagged date : UTC 2015-11-16 10: 41: 47

    Video
    ID : 1
    Format : AVC
    Format/Info : Advanced Video Codec
    Format profile : High@L4.1
    Format settings, CABAC : Yes
    Format settings, ReFrames : 9 frames
    Codec ID : avc1
    Codec ID/Info : Advanced Video Coding
    Duration : 43mn 24s
    Bit rate : 600 Kbps
    Maximum bit rate : 2 408 Kbps
    Width : 640 pixels
    Height : 360 pixels
    Display aspect ratio : 16: 9
    Frame rate mode : Constant
    Frame rate : 23.976 fps
    Color space : YUV
    Chroma subsampling : 4: 2: 0
    Bit depth : 8 bits
    Scan type : Progressive
    Bits/(Pixel*Frame) : 0.109
    Stream size : 186 MiB (82%)
    Title : 264@GPAC0.5.2-DEV-rev248-g39d5978-master
    Writing library : x264 core 146 r2538 121396c
    Encoding settings : cabac=1/ref=9/deblock=1: -3: -3/analyse=0x3: 0x113/me=umh/subme=11/psy=1/psy_rd=1.00: 0.00/mixed_ref=1/me_range=32/chroma_me=1/trellis=2/8x8dct=1/cqm=0/deadzone=21, 11/fast_pskip=0/chroma_qp_offset=-2/threads=6/lookahead_threads=1/sliced_threads=0/nr=0/decimate=0/interlaced=0/bluray_compat=0/constrained_intra=0/bframes=9/b_pyramid=2/b_adapt=2/b_bias=0/direct=3/weightb=1/open_gop=0/weightp=2/keyint=240/keyint_min=23/scenecut=40/intra_refresh=0/rc=2pass/mbtree=0/bitrate=600/ratetol=1.0/qcomp=0.60/qpmin=0/qpmax=69/qpstep=4/cplxblur=20.0/qblur=0.5/ip_ratio=1.40/pb_ratio=1.30/aq=1: 1.00
    Encoded date : UTC 2015-11-16 10: 41: 47
    Tagged date : UTC 2015-11-16 10: 41: 55

    Audio
    ID : 2
    Format : AAC
    Format/Info : Advanced Audio Codec
    Format profile : LC
    Codec ID : 40
    Duration : 43mn 24s
    Bit rate mode : Variable
    Bit rate : 128 Kbps
    Maximum bit rate : 155 Kbps
    Channel(s) : 2 channels
    Channel positions : Front: L R
    Sampling rate : 48.0 KHz
    Compression mode : Lossy
    Stream size : 39.6 MiB (17%)
    Encoded date : UTC 2015-11-16 09: 24: 40
    Tagged date : UTC 2015-11-16 10: 41: 55
    Скриншоты

    Залил: ProT1gR

    Онлайн видео Элементарно


    Размер скачиваемого торрента: 1.53 GB (1647498300 Bytes)

    Элементарно/Elementary (2015) WEB-DLRip | КПК | LostFilm
    загрузка...
    Рейтинг →
     (голосов: 1, оценка 5/5, голосовать можно 1 раз )

    Другие торренты по теме:

  • Элементарно / Elementary (2012) WEB-DL 720p | D торрент скачать бесплатно
  • Элементарно / Elementary (2013) WEB-DLRip | LostFilm скачать через торрент бесплатно
  • Элементарно / Elementary (2013) WEB-DL 720p | LostFilm скачать через торрент бесплатно
  • Элементарно / Elementary (2013) HDTVRip | Kerob торрент скачать бесплатно
  • Элементарно / Elementary (2012-2013) WEB-DLRip-AVC 720p скачать через торрент бесплатно
  • Элементарно / Elementary (2013) WEB-DLRip-AVC от ExKinoRay | LostFilm, NewStudio торрент скачать бесплатно
  • Элементарно / Elementary (2012-2013) WEB-DLRip-AVC 720p l D,NewStudio скачать через торрент бесплатно
  • Элементарно / Elementary (2013) WEB-DLRip | NewStudio торрент скачать бесплатно


    • Комментарии (0):

      Информация

      Информация

        Посетители, находящиеся в группе Гости, не могут оставлять комментарии в данной новости.

        ↓ Меню



        ↓ Опрос

        А Вы добавили сайт в закладки?
        Да
        Не


        Top 10 за неделю (Фильмы)