.
Авторизация | Регистрация
Хочешь лучшие торренты? Добавь свой email!
Добавить
» » Сочувствующая сторона / Bleeding Heart (2015) WEB-DL 720p | L2 торрент скачать бесплатно




    Сочувствующая сторона / Bleeding Heart (2015) WEB-DL 720p | L2 торрент скачать бесплатно

    Опубликовал: Админ | Дата: 13-01-2016, 05:01 | Просмотров: 106



    Детально о кино
    Русское название: Сочувствующая сторона
    Русское название в мировом прокате: Bleeding Heart
    Создали в: 2015
    Категория жанра: драма
    Главный режиссер: Дайан Белл

    Актеры
    Джессика Бил, Заша Мэмет, Лэйси Алессандра, Маурицио Гомес Аморетти, Джо Андерсон, Нандини Бапат, Мишель Брю, Кейт Бёртон, Эди Гатеги

    Сюжет фильма
    Мая и Шива — две молодые и привлекательные девушки, две родные сестры, похожие друг на друга, словно две капли воды. Когда девочки были еще совсем маленькими, судьба распорядилась так, что им пришлось расстаться. С тех пор прошло много лет, и каждая из них живет своей жизнью, даже не задумываясь, что происходит на данный момент с ее родной сестрой. Мая выросла красивой девушкой, изучила йогу, и теперь работает профессиональным инструктором по йоге. У нее есть молодой человек, и все постепенно идет к свадьбе. В общем, все у девушки хорошо. Но однажды все изменилось, когда к ней в дом постучалась Шива и рассказала свою душераздирающую историю. Оказывается, Шиве жилось тяжело. Чтобы прокормить себя, несчастная девушка была вынуждена торговать своим телом, и это далеко не все ее жизненные тяготы и невзгоды. Мая понимает, что теперь обязана помочь своей сестре.


    Снималось в: США/Fido Features, Super Crispy Entertainment
    Время просмотра: 01: 27: 54
    Тип перевода: Любительское (двухголосное) Parovoz Production
    Примечание: Релиз без рекламы.

    Файл
    Тип видео: MKV
    Качество фильма: WEB-DL 720p
    Информация о видео: MPEG-4 AVC, 3939 kb/s, 1280x536
    Информация о звуке: Russian: AC3, 192 kb/s (2 ch)/English: AC3, 384 kb/s (6 ch)
    Субтитры: English
    MI

    Format : Matroska
    Format version : Version 2
    File size : 2.83 GiB
    Duration : 1h 27mn
    Overall bit rate : 4 607 Kbps
    Encoded date : UTC 2016-01-12 14: 01: 31
    Writing application : mkvmerge v7.8.0 (;River Man;) 32bit built on Apr 3 2015 12: 11: 22
    Writing library : libebml v1.3.1 + libmatroska v1.4.2
    Video
    ID : 1
    Format : AVC
    Format/Info : Advanced Video Codec
    Format profile : Main@L3.1
    Format settings, CABAC : No
    Format settings, ReFrames : 2 frames
    Codec ID : V_MPEG4/ISO/AVC
    Duration : 1h 27mn
    Bit rate : 3 939 Kbps
    Width : 1 280 pixels
    Height : 536 pixels
    Display aspect ratio : 2.40: 1
    Frame rate mode : Constant
    Frame rate : 23.976 fps
    Color space : YUV
    Chroma subsampling : 4: 2: 0
    Bit depth : 8 bits
    Scan type : Progressive
    Bits/(Pixel*Frame) : 0.239
    Stream size : 2.42 GiB (86%)
    Language : English
    Default : Yes
    Forced : No
    Color range : Limited
    Color primaries : BT.709
    Transfer characteristics : BT.709
    Matrix coefficients : BT.709
    Audio #1
    ID : 2
    Format : AC-3
    Format/Info : Audio Coding 3
    Mode extension : CM (complete main)
    Format settings, Endianness : Big
    Codec ID : A_AC3
    Duration : 1h 27mn
    Bit rate mode : Constant
    Bit rate : 192 Kbps
    Channel(s) : 2 channels
    Channel positions : Front: L R
    Sampling rate : 48.0 KHz
    Bit depth : 16 bits
    Compression mode : Lossy
    Stream size : 121 MiB (4%)
    Language : Russian
    Default : Yes
    Forced : No
    Audio #2
    ID : 3
    Format : AC-3
    Format/Info : Audio Coding 3
    Mode extension : CM (complete main)
    Format settings, Endianness : Big
    Codec ID : A_AC3
    Duration : 1h 27mn
    Bit rate mode : Constant
    Bit rate : 384 Kbps
    Channel(s) : 6 channels
    Channel positions : Front: L C R, Side: L R, LFE
    Sampling rate : 48.0 KHz
    Bit depth : 16 bits
    Compression mode : Lossy
    Stream size : 241 MiB (8%)
    Language : English
    Default : No
    Forced : No
    Text
    ID : 4
    Format : UTF-8
    Codec ID : S_TEXT/UTF8
    Codec ID/Info : UTF-8 Plain Text
    Language : English
    Default : No
    Forced : No
    Menu
    00: 00: 00.000 : en: Chapter 1
    00: 07: 07.000 : en: Chapter 2
    00: 15: 49.000 : en: Chapter 3
    00: 23: 22.000 : en: Chapter 4
    00: 32: 34.000 : en: Chapter 5
    00: 42: 20.000 : en: Chapter 6
    00: 49: 47.000 : en: Chapter 7
    01: 02: 12.000 : en: Chapter 8
    01: 12: 09.000 : en: Chapter 9
    01: 18: 34.000 : en: Chapter 10
    01: 23: 28.000 : en: Chapter 11
    Скриншоты





    Онлайн видео Сочувствующая сторона


    Размер скачиваемого торрента: 2.83 GB (3037586145 Bytes)

    Сочувствующая сторона/Bleeding Heart (2015) WEB-DL 720p | L2
    загрузка...
    Рейтинг →
     (голосов: 1, оценка 5/5, голосовать можно 1 раз )

    Другие торренты по теме:



      Комментарии (0):

      Информация

      Информация

        Посетители, находящиеся в группе Гости, не могут оставлять комментарии в данной новости.

        ↓ Меню



        ↓ Опрос

        А Вы добавили сайт в закладки?
        Да
        Не


        Top 10 за месяц (Фильмы)