.
Авторизация | Регистрация
Хочешь лучшие торренты? Добавь свой email!
Добавить
» » Флеминг / Fleming (2014) BDRip-AVC | LostFilm торрент скачать бесплатно




    Флеминг / Fleming (2014) BDRip-AVC | LostFilm торрент скачать бесплатно

    Опубликовал: Админ | Дата: 14-01-2016, 13:22 | Просмотров: 124



    Детально о кино
    Русское название: Флеминг
    Русское название в мировом прокате: Fleming
    Создали в: 2013
    Категория жанра: драма, биография
    Главный режиссер: Мат Уайткросс/Mat Whitecross

    Актеры
    Доминик Купер, Руперт Эванс, Лара Пулвер, Камилла Разерфорд, Пип Торренс, Анна Чэнселлор, Лесли Мэнвилл, Сэмюэл Уэст, Ли Асквит-Коу, Дин Леннокс Келли

    Сюжет фильма

    Мало кто знает, но жизнь одного из самых успешных романистов в истории, Иэна Флеминга, была столь же захватывающей и насыщенной событиями, как и жизнь героя его произведений — Джеймса Бонда.
    Эта история начинается в 1938 году, в Лондоне, в разгар предвоенного кризиса. Несмотря на витающее в воздухе напряжение, это было время шумных джаз-клубов, элегантной одежды и шикарных автомобилей. Поэтому сериал получился очень стильным по форме. А содержанием стала история будущего писателя, который только-только завербовался в разведку и принимал участие в самых опасных операциях, организованных против нацистов. В основу драмы были положены письма жены Флеминга, его собственные истории, а также книга его персонального биографа Джона Пирсона.

    Снималось в: Великобритания
    Киностудия: BBC America, Ecosse Films, Sky Atlantic
    Время просмотра: Серия ~00: 45: 00
    Перевод текста: Профессиональный (многоголосый, закадровый) LostFilm
    Файл
    Кодек для видео: AVC, (High@L4.1)
    Качество фильма: BDRip-AVC
    Информация о видео: AVC, 1024 x 576, ~850 kbps, 25 fps
    Информация о звуке: AC-3, 6 ch, ~384 kbps

    M/I
    General
    Unique ID : 200539309073833787490113089107944124437 (0x96DE774E36CEC5F9986031FFDF41B015)
    Complete name : F: СериалыFleming.S01.576p.BDRIP_AVCFleming.S01.E01.BDRIP_AVC.-=DoMiNo=-.mkv
    Format : Matroska
    Format version : Version 4/Version 2
    File size : 485 MiB
    Duration : 44mn 34s
    Overall bit rate : 1 521 Kbps
    Writing application : XviD4PSP 7.0.206
    Writing library : Lavf56.40.101/Lavf56.40.101
    Cover : Yes
    Attachments : cover.png
    ENCODING_INFO : MATROSKA, WEBM MKV/H264 X264 CRF 20.0 Custom/DTS AC3 CBR 384kbps
    Video
    ID : 1
    Format : AVC
    Format/Info : Advanced Video Codec
    Format profile : High@L4.1
    Format settings, CABAC : Yes
    Format settings, ReFrames : 10 frames
    Codec ID : V_MPEG4/ISO/AVC
    Duration : 44mn 34s
    Bit rate : 1 107 Kbps
    Width : 1 024 pixels
    Height : 576 pixels
    Display aspect ratio : 16: 9
    Frame rate mode : Constant
    Frame rate : 25.000 fps
    Color space : YUV
    Chroma subsampling : 4: 2: 0
    Bit depth : 8 bits
    Scan type : Progressive
    Bits/(Pixel*Frame) : 0.075
    Stream size : 353 MiB (73%)
    Writing library : x264 core 148 r2638M 7599210
    Encoding settings : cabac=1/ref=10/deblock=1: -3: -3/analyse=0x3: 0x133/me=umh/subme=10/psy=1/psy_rd=1.00: 0.10/mixed_ref=1/me_range=32/chroma_me=1/trellis=2/8x8dct=1/cqm=0/deadzone=21, 11/fast_pskip=0/chroma_qp_offset=-3/threads=5/lookahead_threads=1/sliced_threads=0/nr=0/decimate=1/interlaced=0/bluray_compat=0/constrained_intra=0/bframes=9/b_pyramid=2/b_adapt=2/b_bias=0/direct=1/weightb=1/open_gop=0/weightp=2/keyint=250/keyint_min=25/scenecut=40/intra_refresh=0/rc=crf/mbtree=0/crf=20.0/qcomp=0.60/qpmin=20/qpmax=69/qpstep=4/ip_ratio=1.40/pb_ratio=1.30/aq=1: 1.00
    Language : English
    Default : Yes
    Forced : No
    DURATION : 00: 44: 34.240000000
    Audio
    ID : 2
    Format : AC-3
    Format/Info : Audio Coding 3
    Mode extension : CM (complete main)
    Format settings, Endianness : Big
    Codec ID : A_AC3
    Duration : 44mn 34s
    Bit rate mode : Constant
    Bit rate : 384 Kbps
    Channel(s) : 6 channels
    Channel positions : Front: L C R, Side: L R, LFE
    Sampling rate : 48.0 KHz
    Frame rate : 31.250 fps (1536 spf)
    Bit depth : 32 bits
    Compression mode : Lossy
    Stream size : 122 MiB (25%)
    Title : MVO, LostFilm
    Language : Russian
    Default : Yes
    Forced : No
    DURATION : 00: 44: 34.240000000
    Menu
    00: 00: 00.000 : : Chapter 01
    00: 03: 38.000 : : Chapter 02
    00: 07: 23.480 : : Chapter 03
    00: 12: 25.240 : : Chapter 04
    00: 15: 39.720 : : Chapter 05
    00: 19: 48.840 : : Chapter 06
    00: 24: 23.960 : : Chapter 07
    00: 27: 43.320 : : Chapter 08
    00: 31: 56.880 : : Chapter 09
    00: 35: 53.200 : : Chapter 10
    00: 39: 27.920 : : Chapter 11
    00: 42: 36.480 : : Chapter 12
    Скриншоты


    Онлайн видео Флеминг


    Размер скачиваемого торрента: 1.62 GB (1742090329 Bytes)

    Флеминг/Fleming (2014) BDRip-AVC | LostFilm
    загрузка...
    Рейтинг →
     (голосов: 1, оценка 3/5, голосовать можно 1 раз )

    Другие торренты по теме:

  • Флеминг / Fleming (2014) WEB-DLRip | LostFilm
  • Флеминг / Fleming (2014) WEB-DLRip 720p от MediaClub | LostFilm скачать через торрент бесплатно
  • Флеминг / Fleming (2014) WEB-DLRip 1080p от MediaClub | LostFilm скачать через торрент бесплатно
  • Флеминг / Fleming (2014) WEB-DLRip 1080p | LostFilm
  • Флеминг / Fleming (2014) WEB-DLRip-AVC | LostFilm
  • Флеминг / Fleming (2013) WEB-DLRip-AVC | LostFilm
  • Флеминг / Fleming (2014) WEB-DLRip от Scarabey | LostFilm скачать через торрент бесплатно
  • Флеминг / Fleming (2013) BDRip 720p от MediaClub | LostFilm скачать через торрент бесплатно


    • Комментарии (0):

      Информация

      Информация

        Посетители, находящиеся в группе Гости, не могут оставлять комментарии в данной новости.

        ↓ Меню



        ↓ Опрос

        А Вы добавили сайт в закладки?
        Да
        Не


        Top 10 за месяц (Фильмы)