.
Авторизация | Регистрация
» » Ужастики / Goosebumps (2015) BDRip 720p | iTunes скачать торрент бесплатно




    Ужастики / Goosebumps (2015) BDRip 720p | iTunes скачать торрент бесплатно

    Опубликовал: Админ | Дата: 15-01-2016, 05:01 | Просмотров: 152



    Создали в: США, Австралия/Columbia Pictures, Original Film, Village Roadshow Pictures
    Категория жанра: фэнтези, комедия, приключения
    Главный режиссер: Роб Леттерман
    Продюсер: Дебора Форте, Нил Х. Мориц, Билл Баннерман
    Актеры: Дилан Миннетт, Одейя Раш, Эми Райан, Райан Ли, Джиллиан Белл, Джек Блэк, Кен Марино, Холстон Сейдж, Стивен Крюгер, Кит А. Болден

    Описание фильма

    Кошмары бывают разные. Вечно голодные оборотни, плохо воспитанные зомби, агрессивные садовые гномы и даже гигантский неуравновешенный снежный человек…
    Все эти фантастические монстры и монстрики многие годы магическим образом удерживались на страницах знаменитых бестселлеров Ужастики, пока по воле случая их не выпустили на свободу в реальный мир.

    Рейтинг MPAA: PG - рекомендуется присутствие родителей
    Дата мировой премьеры: 3 октября 2015
    Дата российской премьеры: 3 декабря 2015, WDSSPR
    Релиз подготовил: bluebird
    Время просмотра: 01: 43: 16
    Качество фильма: BDRip 720p
    Перевод текста: Профессиональный (полное дублирование) (iTunes)
    Вид субтитров: Вшитые, отключаемые
    Язык субтитров: Русский, Английский
    Информация о видео: MPEG-4 AVC/H.264, 1280x536, (2, 40: 1), 5326 Kbps, 23.976 fps
    Информация о звуке: AC3, 6 ch, 384 kbps - Русский
    Информация о звуке: AC3, 6 ch, 640 kbps - Английский
    MediaInfo:

    Формат : Matroska
    Версия формата : Version 4/Version 2
    Размер файла : 4, 58 Гбайт
    Продолжительность : 1 ч. 43 м.
    Общий поток : 6353 Кбит/сек
    Название фильма : Goossebumps.2015.x264.BDRip.720p
    Дата кодирования : UTC 2016-01-12 09: 30: 29
    Программа кодирования : mkvmerge v7.9.0 (;Birds;) 64bit
    Библиотека кодирования : libebml v1.3.1 + libmatroska v1.4.2
    Видео
    Идентификатор : 1
    Формат : AVC
    Формат/Информация : Advanced Video Codec
    Профиль формата : High@L4.1
    Параметр CABAC формата : Да
    Параметр ReFrames формата : 12 кадров
    Идентификатор кодека : V_MPEG4/ISO/AVC
    Продолжительность : 1 ч. 43 м.
    Битрейт : 5326 Кбит/сек
    Ширина : 1280 пикселей
    Высота : 536 пикселей
    Соотношение сторон : 2, 40: 1
    Режим частоты кадров : Постоянный
    Частота кадров : 23, 976 (24000/1001) кадра/сек
    Цветовое пространство : YUV
    Субдискретизация насыщенности : 4: 2: 0
    Битовая глубина : 8 бит
    Тип развёртки : Прогрессивная
    Бит/(Пиксели*Кадры) : 0.324
    Размер потока : 3, 84 Гбайт (84%)
    Заголовок : Goossebumps.2015.x264.BDRip.720p.BLUEBIRD
    Библиотека кодирования : x264 core 142 r2431+42 c69a006 tMod 8-bit@all X86_64
    Настройки программы : cabac=1/ref=12/deblock=1: -3: -3/analyse=0x3: 0x133/me=umh/subme=11/psy=1/fade_compensate=0.00/psy_rd=1.05: 1.00/mixed_ref=1/me_range=32/chroma_me=1/trellis=2/8x8dct=1/cqm=0/deadzone=21, 11/fast_pskip=0/chroma_qp_offset=-4/threads=12/lookahead_threads=2/sliced_threads=0/nr=0/decimate=0/interlaced=0/bluray_compat=0/constrained_intra=0/fgo=0/bframes=8/b_pyramid=2/b_adapt=2/b_bias=0/direct=3/weightb=1/open_gop=0/weightp=2/keyint=240/keyint_min=23/scenecut=40/intra_refresh=0/rc_lookahead=60/rc=crf/mbtree=0/crf=17.0000/qcomp=0.60/qpmin=0: 0: 0/qpmax=69: 69: 69/qpstep=4/vbv_maxrate=40000/vbv_bufsize=30000/crf_max=0.0/nal_hrd=none/filler=0/ip_ratio=1.40/pb_ratio=1.30/aq=1: 1.00/aq-sensitivity=10.00/aq-factor=1.00: 1.00: 1.00/aq2=0/aq3=0
    Язык : English
    Default : Да
    Forced : Нет
    Аудио #1
    Идентификатор : 2
    Формат : AC-3
    Формат/Информация : Audio Coding 3
    Расширение режима : CM (complete main)
    Параметр Endianness формата : Big
    Идентификатор кодека : A_AC3
    Продолжительность : 1 ч. 43 м.
    Вид битрейта : Постоянный
    Битрейт : 384 Кбит/сек
    Каналы : 6 каналов
    Расположение каналов : Front: L C R, Side: L R, LFE
    Частота : 48, 0 КГц
    Частота кадров : 31, 250 кадров/сек (1536 spf)
    Метод сжатия : С потерями
    Размер потока : 284 Мбайт (6%)
    Заголовок : Дублированный (iTunes)
    Язык : Russian
    Default : Да
    Forced : Нет
    Аудио #2
    Идентификатор : 3
    Формат : AC-3
    Формат/Информация : Audio Coding 3
    Расширение режима : CM (complete main)
    Параметр Endianness формата : Big
    Идентификатор кодека : A_AC3
    Продолжительность : 1 ч. 43 м.
    Вид битрейта : Постоянный
    Битрейт : 640 Кбит/сек
    Каналы : 6 каналов
    Расположение каналов : Front: L C R, Side: L R, LFE
    Частота : 48, 0 КГц
    Частота кадров : 31, 250 кадров/сек (1536 spf)
    Метод сжатия : С потерями
    Размер потока : 473 Мбайт (10%)
    Язык : English
    Default : Нет
    Forced : Нет
    Текст #1
    Идентификатор : 4
    Формат : UTF-8
    Идентификатор кодека : S_TEXT/UTF8
    Идентификатор кодека/Информация : UTF-8 Plain Text
    Продолжительность : 42 м.
    Битрейт : 0 бит/сек
    Count of elements : 3
    Размер потока : 100 байт (0%)
    Заголовок : forced
    Язык : Russian
    Default : Нет
    Forced : Нет
    Текст #2
    Идентификатор : 5
    Формат : UTF-8
    Идентификатор кодека : S_TEXT/UTF8
    Идентификатор кодека/Информация : UTF-8 Plain Text
    Продолжительность : 1 ч. 34 м.
    Битрейт : 91 бит/сек
    Count of elements : 1229
    Размер потока : 63, 2 Кбайт (0%)
    Заголовок : full
    Язык : Russian
    Default : Нет
    Forced : Нет
    Текст #3
    Идентификатор : 6
    Формат : UTF-8
    Идентификатор кодека : S_TEXT/UTF8
    Идентификатор кодека/Информация : UTF-8 Plain Text
    Продолжительность : 1 ч. 33 м.
    Битрейт : 59 бит/сек
    Count of elements : 1242
    Размер потока : 40, 7 Кбайт (0%)
    Заголовок : full
    Язык : English
    Default : Нет
    Forced : Нет
    Текст #4
    Идентификатор : 7
    Формат : UTF-8
    Идентификатор кодека : S_TEXT/UTF8
    Идентификатор кодека/Информация : UTF-8 Plain Text
    Продолжительность : 1 ч. 42 м.
    Битрейт : 61 бит/сек
    Count of elements : 1519
    Размер потока : 46, 0 Кбайт (0%)
    Заголовок : SDH
    Язык : English
    Default : Нет
    Forced : Нет
    Меню
    00: 00: 00.000 : en: Chapter 01
    00: 08: 09.697 : en: Chapter 02
    00: 11: 45.955 : en: Chapter 03
    00: 17: 54.031 : en: Chapter 04
    00: 21: 52.853 : en: Chapter 05
    00: 27: 57.842 : en: Chapter 06
    00: 32: 40.291 : en: Chapter 07
    00: 38: 29.849 : en: Chapter 08
    00: 44: 37.007 : en: Chapter 09
    00: 52: 01.451 : en: Chapter 10
    00: 58: 12.947 : en: Chapter 11
    01: 03: 40.608 : en: Chapter 12
    01: 09: 56.317 : en: Chapter 13
    01: 16: 40.762 : en: Chapter 14
    01: 22: 55.220 : en: Chapter 15
    01: 31: 13.092 : en: Chapter 16

    Скриншоты:

    Время раздачи: 24/7

    Онлайн видео Ужастики


    Размер скачиваемого торрента: 4.58 GB (4920357087 Bytes)

    Ужастики/Goosebumps (2015) BDRip 720p | iTunes
    загрузка...
    Рейтинг →
     (голосов: 1, оценка 4/5, голосовать можно 1 раз )

    Другие торренты по теме:

  • Ужастики / Goosebumps (2015) CAMRip | L1 скачать торрент бесплатно
  • Ужастики / Goosebumps (2015) WEBRip | L2 скачать торрент бесплатно
  • Ужастики / Goosebumps (2015) WEBRip 720p | Чистый звук скачать торрент бесплатно
  • Ужастики / Goosebumps (2015) WEB-DLRip | iTunes скачать торрент бесплатно
  • Ужастики / Goosebumps (2015) BDRip 720p | iTunes скачать торрент бесплатно
  • Ужастики / Goosebumps (2015) BDRip 1080p | iTunes скачать торрент бесплатно
  • Ужастики / Goosebumps (2015) HDRip | iTunes скачать торрент бесплатно
  • Ужастики / Goosebumps (2015) BDRip 720p от Scarabey | iTunes скачать торрент бесплатно


    • Комментарии (0):

      Информация

      Информация

        Посетители, находящиеся в группе Гости, не могут оставлять комментарии в данной новости.

        ↓ Меню



        ↓ Опрос

        А Вы добавили сайт в закладки?
        Да
        Не


        Top 10 за неделю (Фильмы)