.
Авторизация | Регистрация
» » Терминатор: Генезис / Terminator: Genisys (2015) HDRip | P, A скачать торрент бесплатно




    Терминатор: Генезис / Terminator: Genisys (2015) HDRip | P, A скачать торрент бесплатно

    Опубликовал: Админ | Дата: 17-01-2016, 05:01 | Просмотров: 116


    Терминатор: Генезис/Terminator: Genisys (2015) HDRip

    Создали в: США/Paramount Pictures, Skydance Productions
    Категория жанра: фантастика, боевик, триллер
    Главный режиссер: Алан Тейлор
    Продюсер: Дэвид Эллисон, Дэна Голдберг, Билл Карраро
    Актеры: Арнольд Шварценеггер, Джейсон Кларк, Эмилия Кларк, Джай Кортни, Дж.К. Симмонс, Дайо Окенийи, Мэтт Смит, Кортни Б. Вэнс, Ли Бён Хон, Майкл Глэдис

    Описание фильма

    Когда Джон Коннор, лидер сопротивления, посылает сержанта Кайла Риза назад в 1984 год, чтобы защитить Сару Коннор и спасти будущее, неожиданный поворот событий создает разлом во времени. Сержант Риз оказывается в новой, незнакомой версии прошлого, где он встречает неожиданных союзников, в том числе Терминатора, новых опасных врагов, и новую миссию: изменить будущее…

    Рейтинг MPAA: - детям до 13 лет просмотр не желателен
    Дата мировой премьеры: 21 июня 2015
    Дата российской премьеры: 2 июля 2015, Централ Партнершип 3D
    Дата выхода Blu-Ray/DVD релиза: 22 ноября 2015, Новый Диск
    Релиз подготовил: FAGOT100(NNM-CLUB)
    Время просмотра: 02: 05: 42
    Качество фильма: HDRip
    Перевод текста: Профессиональный (многоголосый, закадровый) Омикрон + Авторский (одноголосый, закадровый) (Гаврилов, Володарский)
    Субтитры: Отсутствуют
    Информация о видео: XviD, 720x304 (2.35: 1), 23.976 fps, 1 892 Kbps (0.360 bit/pixel)
    Информация о звуке #1: AC-3, 48.0 KHz, 2 ch, 192 Kbps, CBR - Омикрон
    Информация о звуке #2: AC-3, 48.0 KHz, 2 ch, 192 Kbps, CBR - Володарский
    Информация о звуке #3: AC-3, 48.0 KHz, 2 ch, 192 Kbps, CBR - Гаврилов
    MediaInfo:
    Формат : AVI
    Формат/Информация : Audio Video Interleave
    Профиль формата : OpenDML
    Размер файла : 2, 19 Гбайт
    Продолжительность : 2 ч. 5 м.
    Общий поток : 2492 Кбит/сек
    Программа кодирования : VirtualDubModRus 1.5.10.2 (build 2542/release)
    Библиотека кодирования : VirtualDubMod build 2542/release
    Видео
    Идентификатор : 0
    Формат : MPEG-4 Visual
    Профиль формата : Advanced Simple@L5
    Параметр BVOP формата : 1
    Параметр QPel формата : Нет
    Параметр GMC формата : Без точки перехода
    Параметр матрицы формата : Выборочная
    Идентификатор кодека : XVID
    Идентификатор кодека/Подсказка : XviD
    Продолжительность : 2 ч. 5 м.
    Битрейт : 1892 Кбит/сек
    Ширина : 720 пикселей
    Высота : 304 пикселя
    Соотношение сторон : 2, 35: 1
    Частота кадров : 23, 976 кадра/сек
    Цветовое пространство : YUV
    Субдискретизация насыщенности : 4: 2: 0
    Битовая глубина : 8 бит
    Тип развёртки : Прогрессивная
    Метод сжатия : С потерями
    Бит/(Пиксели*Кадры) : 0.360
    Размер потока : 1, 66 Гбайт (76%)
    Библиотека кодирования : XviD 73
    Аудио #1
    Идентификатор : 1
    Формат : AC-3
    Формат/Информация : Audio Coding 3
    Расширение режима : CM (complete main)
    Параметр Endianness формата : Big
    Идентификатор кодека : 2000
    Продолжительность : 2 ч. 5 м.
    Вид битрейта : Постоянный
    Битрейт : 192 Кбит/сек
    Каналы : 2 канала
    Расположение каналов : Front: L R
    Частота : 48, 0 КГц
    Битовая глубина : 16 бит
    Метод сжатия : С потерями
    Размер потока : 173 Мбайт (8%)
    Выравнивание : Разделение по промежуткам
    Продолжительность промежутка : 42 мс. (1, 00 видеокадр)
    Время предзагрузки промежутка : 500 мс.
    Аудио #2
    Идентификатор : 2
    Формат : AC-3
    Формат/Информация : Audio Coding 3
    Расширение режима : CM (complete main)
    Параметр Endianness формата : Big
    Идентификатор кодека : 2000
    Продолжительность : 2 ч. 5 м.
    Вид битрейта : Постоянный
    Битрейт : 192 Кбит/сек
    Каналы : 2 канала
    Расположение каналов : Front: L R
    Частота : 48, 0 КГц
    Битовая глубина : 16 бит
    Метод сжатия : С потерями
    Размер потока : 173 Мбайт (8%)
    Выравнивание : Разделение по промежуткам
    Продолжительность промежутка : 42 мс. (1, 00 видеокадр)
    Время предзагрузки промежутка : 500 мс.
    Аудио #3
    Идентификатор : 3
    Формат : AC-3
    Формат/Информация : Audio Coding 3
    Расширение режима : CM (complete main)
    Параметр Endianness формата : Big
    Идентификатор кодека : 2000
    Продолжительность : 2 ч. 5 м.
    Вид битрейта : Постоянный
    Битрейт : 192 Кбит/сек
    Каналы : 2 канала
    Расположение каналов : Front: L R
    Частота : 48, 0 КГц
    Битовая глубина : 16 бит
    Метод сжатия : С потерями
    Размер потока : 173 Мбайт (8%)
    Выравнивание : Разделение по промежуткам
    Продолжительность промежутка : 42 мс. (1, 00 видеокадр)
    Время предзагрузки промежутка : 500 мс.

    Скриншоты:


    Онлайн видео Терминатор: Генезис


    Размер скачиваемого торрента: 2.19 GB (2349834240 Bytes)

    Терминатор: Генезис/Terminator: Genisys (2015) HDRip | P, A
    загрузка...
    Рейтинг →
     (голосов: 1, оценка 4/5, голосовать можно 1 раз )

    Другие торренты по теме:

  • Терминатор: Генезис / Terminator: Genisys (2015) DCPrip | 2K, Hi10P | Трейлеры скачать торрент бесплатно
  • Терминатор: Генезис (2015) HDRip скачать торрент бесплатно
  • Терминатор: Генезис / Terminator: Genisys (2015) WEBRip 1080p | Трейлер скачать торрент бесплатно
  • Терминатор: Генезис / Terminator: Genisys (2015) WEBRip 1080p | Фрагменты скачать торрент бесплатно
  • Терминатор: Генезис / Terminator: Genisys (2015) WEBRip 1080p | Фрагменты скачать торрент бесплатно
  • OST - Терминатор: Генезис / Terminator: Genisys (2015) FLAC скачать торрент бесплатно
  • Терминатор: Генезис / Terminator: Genisys (2015) CAMRip скачать торрент бесплатно
  • Терминатор: Генезис / Terminator: Genisys (2015) CAMRip скачать торрент бесплатно


    • Комментарии (0):

      Информация

      Информация

        Посетители, находящиеся в группе Гости, не могут оставлять комментарии в данной новости.

        ↓ Меню



        ↓ Опрос

        А Вы добавили сайт в закладки?
        Да
        Не


        Top 10 за неделю (Фильмы)

        Ёлки 5 (2016) WEB-DLRip скачать торрент бесплатно

        (просмотров: 2481)
        Разрушение / Demolition (2015) BDRemux 1080p от ExKinoRay | L скачать торрент бесплатно

        (просмотров: 1111)
        Мой парень – киллер / Mr. Right (2015) WEB-DL 1080p | L скачать торрент бесплатно

        (просмотров: 1051)
        Экипаж (2016) BDRip от New-Team | D | Лицензия скачать торрент бесплатно
        АНОНСЫ МОИХ РАЗДАЧ
        (просмотров: 901)
        Экипаж (2016) BDRip от New-Team | D | Лицензия скачать торрент бесплатно
        АНОНСЫ МОИХ РАЗДАЧ
        (просмотров: 901)
        Гений / Genius (2016) WEB-DLRip 1080p | Звук TS скачать торрент бесплатно

        (просмотров: 891)
        Демон внутри / Вскрытие Джейн Доу / The Autopsy of Jane Doe (2016) WEB-DLRip от Scarabey | P скачать торрент бесплатно
        Мы В КОНТАКТЕ =)
        (просмотров: 811)
        Кухня (1-5 сезоны: 1-100 серии из 100 + 2 бонуса) / 2012-2015 / РУ / DVDRip, WEB-DLRip скачать торрент бесплатно

        (просмотров: 811)
        Бригада (2002) HDDVDRip-AVC от TORRENT-45

        (просмотров: 811)
        Равные / Equals (2015) WEB-DLRip | L2 скачать торрент бесплатно

        (просмотров: 811)